Фердинанд / Ferdinand (2017) Remux 1080p Ukr/Eng | Sub Ukr/Eng

Нові коментарі

Нова тема   Відповісти
Автор Повідомлення
staf777 
Відео Гуртом - підтримка та поширення
Відео Гуртом - підтримка та поширення


З нами з: 16.11.16
Востаннє: 26.08.19
Повідомлень: 2743

2018-03-15 20:10  
Фердинанд / Ferdinand (2017) Remux 1080p Ukr/Eng | Sub Ukr/Eng

Фердинанд / Ferdinand (2017) Remux 1080p Ukr/Eng | Sub Ukr/Eng


Жанр: анімація, комедія, пригодницький
Країна: США



Кінокомпанія: Blue Sky Studios, Davis Entertainment, Twentieth Century Fox Animation
Режисер: Карлос Салдана (Carlos Saldanha)
Актори: Джон Сіна (John Cena), Кейт МакКіннон (Kate McKinnon), Боббі Каннавале (Bobby Cannavale), Джеремі Сісто (Jeremy Sisto), Ентоні Андерсон (Anthony Anderson), Девід Теннант (David Tennant), Джина Родрігез (Gina Rodriguez), Гебріел Іглесіас (Gabriel Iglesias), Саллі Філліпс (Sally Phillips), Борис Коджо (Boris Kodjoe) та інші.

Сюжет:
Більшість із нас зовсім не такі, які можемо здатися ззовні. Так і бик Фердинанд – він величезний, дуже сильний, але неймовірно добрий. Замість того, щоб боцатися з родичами, Фердинанд вважає за краще миролюбно гуляти і спостерігати за природою. Але через свої значні габарити бика вибирають для кориди в Мадриді. Але як він буде битися з іншими лютими биками, якщо сам не може навіть найменшого гризуна образити? Фердинанд повинен відстояти свої переконання не дивлячись ні на що. Тільки будучи собою цей бик може щось змінити у світі. Він не збирається ні з ким битися і тому хоче втекти додому з командою нових друзів. Якщо ти бик, ти не зобов'язаний робити те, що роблять усі бики.


Тривалість: 01:48:00
Якість: Remux 1080p
Відео:
кодек:
розмір кадру: 1920x1080
бітрейт: 25,8 Mб/с

Аудіо # 1:
мова: українська
переклад: професійний дубльований
кодек: 5.1
бітрейт: 448 кб/с

Аудіо # 2:
мова: англійська
переклад: оригінал
кодек: -HD MA 5.1
бітрейт: 4626 кб/с

Аудіо # 3:
мова: англійська
переклад: оригінал
кодек: 5.1
бітрейт: 640 кб/с

Аудіо # 4:
мова: англійська
переклад: описова
кодек: 5.1
бітрейт: 448 кб/с

Субтитри # 1:
мова: українська (повні)
тип: пререндерні
формат: *.pgs

Субтитри # 2:
мова: українська (повні)
тип: програмні (м'які)
формат: *.srt

Субтитри # 3-4:
мова: англійська (повні, SDH)
тип: програмні (м'які)
формат: *.srt

Субтитри # 5:
мова: англійська (SDH)
тип: пререндерні
формат: *.pgs
Info
General
Unique ID : 232899714464348233793271306261855464844 (0xAF36DA793FBCCFD0BA1A6694939FED8C)
Complete name : H:\» HD українською » Мультфільми в HD\Ferdinand (2017) Remux 1080p [Ukr][Eng][Sub Ukr,Eng][Hurtom].
Format :
Format version : Version 4 / Version 2
File size : 24.2 GiB
Duration : 1 h 48 min
Overall bit rate mode : Variable
Overall bit rate : 32.0 Mb/s
Movie name : Ferdinand (2017) Remux 1080p [Ukr][Eng][Sub Ukr,Eng][Hurtom]
Encoded date : UTC 2018-03-16 11:04:13
Writing application : v9.8.0 ('Kuglblids') 64bit
Writing library : libebml v1.3.4 + v1.4.5
Cover : Yes
Attachments : cover

Video
ID : 1
Format : AVC
Format/Info : Advanced Video Codec
Format profile : [email protected]
Format settings, CABAC : Yes
Format settings, ReFrames : 4 frames
Codec ID : V_MPEG4/ISO/AVC
Duration : 1 h 48 min
Bit rate mode : Variable
Bit rate : 25.8 Mb/s
Maximum bit rate : 29.0 Mb/s
Width : 1 920 pixels
Height : 1 080 pixels
Display aspect ratio : 16:9
Frame rate mode : Constant
Frame rate : 23.976 (24000/1001) FPS
Color space : YUV
Chroma subsampling : 4:2:0
Bit depth : 8 bits
Scan type : Progressive
Bits/(Pixel*Frame) : 0.519
Stream size : 19.5 GiB (81%)
Title : Ferdinand.2017.1080p.Remux
Language : English
Default : Yes
Forced : No

Audio #1
ID : 2
Format : AC-3
Format/Info : Audio Coding 3
Mode extension : CM (complete main)
Format settings, Endianness : Big
Codec ID : A_AC3
Duration : 1 h 48 min
Bit rate mode : Constant
Bit rate : 448 kb/s
Channel(s) : 6 channels
Channel positions : Front: L C R, Side: L R, LFE
Sampling rate : 48.0 kHz
Frame rate : 31.250 FPS (1536 spf)
Bit depth : 16 bits
Compression mode : Lossy
Stream size : 347 MiB (1%)
Language : Ukrainian
Default : Yes
Forced : Yes

Audio #2
ID : 3
Format :
Format/Info : Digital Theater Systems
Format profile : MA / Core
Mode : 16
Format settings, Endianness : Big
Codec ID : A_DTS
Duration : 1 h 48 min
Bit rate mode : Variable / Constant
Bit rate : 4 626 kb/s / 1 509 kb/s
Channel(s) : 8 channels / 6 channels
Channel positions : Front: L C R, Side: L R, Back: L R, LFE / Front: L C R, Side: L R, LFE
Sampling rate : 48.0 kHz
Frame rate : 93.750 FPS (512 spf)
Bit depth : 24 bits
Compression mode : Lossless / Lossy
Stream size : 3.50 GiB (14%)
Title : | Original |
Language : English
Default : No
Forced : No

Audio #3
ID : 4
Format : AC-3
Format/Info : Audio Coding 3
Mode extension : CM (complete main)
Format settings, Endianness : Big
Codec ID : A_AC3
Duration : 1 h 48 min
Bit rate mode : Constant
Bit rate : 640 kb/s
Channel(s) : 6 channels
Channel positions : Front: L C R, Side: L R, LFE
Sampling rate : 48.0 kHz
Frame rate : 31.250 FPS (1536 spf)
Bit depth : 16 bits
Compression mode : Lossy
Delay relative to video : 32 ms
Stream size : 495 MiB (2%)
Title : | Original |
Language : English
Default : No
Forced : No

Audio #4
ID : 5
Format : AC-3
Format/Info : Audio Coding 3
Mode extension : CM (complete main)
Format settings, Endianness : Big
Codec ID : A_AC3
Duration : 1 h 48 min
Bit rate mode : Constant
Bit rate : 448 kb/s
Channel(s) : 6 channels
Channel positions : Front: L C R, Side: L R, LFE
Sampling rate : 48.0 kHz
Frame rate : 31.250 FPS (1536 spf)
Bit depth : 16 bits
Compression mode : Lossy
Stream size : 346 MiB (1%)
Title : | Audiodescription |
Language : English
Default : No
Forced : No

Text #1
ID : 6
Format : PGS
Muxing mode : zlib
Codec ID : S_HDMV/PGS
Codec ID/Info : Picture based subtitle format used on BDs/HD-DVDs
Duration : 1 h 46 min
Bit rate : 8 262 b/s
Count of elements : 2304
Stream size : 6.31 MiB (0%)
Title : Full
Language : Ukrainian
Default : No
Forced : No

Text #2
ID : 7
Format : UTF-8
Codec ID : S_TEXT/UTF8
Codec ID/Info : UTF-8 Plain Text
Duration : 1 h 46 min
Bit rate : 70 b/s
Count of elements : 1152
Stream size : 54.8 KiB (0%)
Title : Full
Language : Ukrainian
Default : No
Forced : No

Text #3
ID : 8
Format : UTF-8
Codec ID : S_TEXT/UTF8
Codec ID/Info : UTF-8 Plain Text
Duration : 1 h 35 min
Bit rate : 45 b/s
Count of elements : 1237
Stream size : 32.1 KiB (0%)
Title : Full
Language : English
Default : No
Forced : No

Text #4
ID : 9
Format : UTF-8
Codec ID : S_TEXT/UTF8
Codec ID/Info : UTF-8 Plain Text
Duration : 1 h 43 min
Bit rate : 58 b/s
Count of elements : 1812
Stream size : 43.9 KiB (0%)
Title : SDH
Language : English
Default : No
Forced : No

Text #5
ID : 10
Format : PGS
Muxing mode : zlib
Codec ID : S_HDMV/PGS
Codec ID/Info : Picture based subtitle format used on BDs/HD-DVDs
Duration : 1 h 43 min
Bit rate : 13.7 kb/s
Count of elements : 3660
Stream size : 10.1 MiB (0%)
Title : SDH
Language : English
Default : No
Forced : No

Menu
00:00:00.000 : en:Chapter 1
00:03:37.800 : en:Chapter 2
00:08:10.281 : en:Chapter 3
00:11:51.460 : en:Chapter 4
00:16:23.524 : en:Chapter 5
00:24:14.870 : en:Chapter 6
00:28:30.458 : en:Chapter 7
00:34:03.124 : en:Chapter 8
00:37:53.187 : en:Chapter 9
00:40:54.160 : en:Chapter 10
00:44:55.359 : en:Chapter 11
00:49:15.994 : en:Chapter 12
00:53:27.245 : en:Chapter 13
00:59:40.952 : en:Chapter 14
01:03:20.671 : en:Chapter 15
01:06:23.270 : en:Chapter 16
01:09:19.822 : en:Chapter 17
01:12:18.917 : en:Chapter 18
01:17:33.940 : en:Chapter 19
01:20:55.058 : en:Chapter 20
01:25:33.837 : en:Chapter 21
01:30:38.391 : en:Chapter 22
01:36:01.839 : en:Chapter 23
01:38:01.166 : en:Chapter 24
Скріншоти





Джерело: &
Особиста оцінка: 0 - не дивився


Золотий реліз (завантажене не впливає на рейтинг)
 Трекер:    Зареєстрований   

Завантажити / скачати мультфільм українською



відео для новачків



 Зареєстрований:   2018-03-16 16:12
 Розмір:   24.16 GB 
 Оцінка мультфільму:   9.5/10 (Голосів: 27)
   
Інші релізи
   Фердинанд / Ferdinand (2017) UHD Remux 4K 2160p HDR H.265 Ukr/Eng | Sub Ukr/Eng Devil_my_cry  7 / 0   39.94 GB   2018-03-19 20:42 
   Фердинанд / Ferdinand (2017) 1080p Ukr/Eng | Sub Ukr/Eng staf777  33 / 0   8.65 GB   2018-03-15 23:10 
   Фердинанд / Ferdinand (2017) AVC Ukr/Eng | Sub Ukr/Eng 11FrYkT  43 / 0   1.8 GB   2018-03-15 22:59 
   Фердинанд / Ferdinand (2017) 720p Ukr/Eng | Sub Ukr/Eng 11FrYkT  50 / 0   4.3 GB   2018-03-15 22:16 
   Фердинанд / Ferdinand (2017) Ukr/Eng | Sub Ukr/Eng Electroz  22 / 0   2.05 GB   2018-03-15 21:30 
   Фердинанд / Ferdinand (2017) Jatx_11  76 / 0   1.46 GB   2018-03-15 19:59 
bot 
робот


З нами з: 30.09.07
Востаннє: 26.05.05
Повідомлень: 21816

2018-03-16 16:11  
Тему перенесено з Анонси релізів до форуму Мультфільми в HD


staf777

VINRARUS 
Поважний учасник


З нами з: 16.11.11
Востаннє: 25.08.19
Повідомлень: 206

2018-03-17 19:42  
Вибачте, але для чого цьому мультику такий гігантський бітрейт?
Це ж досить примітивна графіка аля Paint.

div4eater 
Частий відвідувач


З нами з: 09.06.17
Востаннє: 23.07.19
Повідомлень: 30

2018-03-17 20:39  
Менший бітрейт в ріпах зазвичай. Мульт хороший. І на диво якісна звукова доріжка.
stog 
Новенький


З нами з: 15.06.11
Востаннє: 23.08.19
Повідомлень: 5

2018-03-21 09:58  
Підкажіть, даний мульт в 3D буде?
Uberwinder 
VIP


З нами з: 18.11.16
Востаннє: 26.08.19
Повідомлень: 276

2018-04-30 08:05  
Непоганий мультфільм. Добрий та, місцями, досить веселий.
Ваш часовий пояс: GMT + 2 Години

Нова тема   Відповісти