Загадкова справа Бенджаміна Баттона / The Curious Case of Benjamin Button (2008) 1080p Ukr/Eng | Sub Eng

Нові коментарі

Нова тема   Відповісти
Автор Повідомлення
Argentum 
Поважний учасник


З нами з: 25.09.11
Востаннє: 23.05.19
Повідомлень: 200

2018-03-15 13:39  
Загадкова справа Бенджаміна Баттона / The Curious Case of Benjamin Button (2008) 1080p Ukr/Eng | Sub Eng

Загадкова справа Бенджаміна Баттона / The Curious Case of Benjamin Button (2008) 1080p Ukr/Eng | Sub Eng


Жанр: драма, фантастика
Країна: США



Кінокомпанія: Warner Brothers, The Kennedy/Marshall Company
Режисер: Девід Фінчер
Актори: Бред Пітт, Кейт Бланшетт, Джулія Ормонд, Джейсон Флемінг, Тільда Свінтон, Тараджі Генсон, Джаред Гарріс та інші

Сюжет:
Фільм про чоловіка, який народився у віці 80-ти років, а потім... почав молодіти. Ця людина, як і кожен з нас, не міг зупинити час. Його шлях в ХХI століття, що бере свій початок в Новому Орлеані в 1918-му році в самому кінці Першої Світової війни, буде настільки незвичайний, що навряд чи міг мати місце в житті кого-небудь іншого. Фільм оповідає про долю унікальної людини, про людей і події, що чекають його попереду, про любов, яку він знайде і втратить, про радощі життя і смутку втрат і про те, що залишається з нами поза часом.


Тривалість: 02:46:03
Якість:
Відео:
кодек:
розмір кадру: 1920 х 800
бітрейт: 13,5 Мб/с

Аудіо # 1:
мова: українська
переклад: професійний дубльований | студія AdiozProduction
кодек: 5.1
бітрейт: 640 кб/с

Аудіо # 2:
мова: англійська
переклад: оригінал
кодек: 5.1
бітрейт: 640 кб/с

Субтитри: (форсовані)
мова: українська
тип: пререндерні
формат: *.pgs

Субтитри:
мова: англійська
тип: пререндерні
формат: *.pgs
Info
General
Unique ID : 283553902555237249215057668327417827664 (0xD5527EC3FA92AAC33F6EDA116E23D150)
Complete name : The Curious Case of Benjamin Button (2008) [Ukr, Eng] 1080p [Hurtom].
Format :
Format version : Version 4 / Version 2
File size : 17.2 GiB
Duration : 2 h 46 min
Overall bit rate : 14.8 Mb/s
Movie name : The Curious Case of Benjamin Button (2008)
Encoded date : UTC 2018-03-14 11:57:30
Writing application : v21.0.0 ('Tardigrades Will Inherit The Earth') 64-bit
Writing library : libebml v1.3.5 + v1.4.8
Attachments : fWgIzhKaxpNjl9aWyZhRzJ5RXYM.jpg

Video
ID : 1
Format : AVC
Format/Info : Advanced Video Codec
Format profile : [email protected]
Format settings : CABAC / 5 Ref Frames
Format settings, CABAC : Yes
Format settings, ReFrames : 5 frames
Codec ID : V_MPEG4/ISO/AVC
Duration : 2 h 46 min
Bit rate : 13.5 Mb/s
Width : 1 920 pixels
Height : 800 pixels
Display aspect ratio : 2.40:1
Frame rate mode : Constant
Frame rate : 23.976 (24000/1001) FPS
Color space : YUV
Chroma subsampling : 4:2:0
Bit depth : 8 bits
Scan type : Progressive
Bits/(Pixel*Frame) : 0.367
Stream size : 15.7 GiB (91%)
Title : AVC 1920*800 @ 13.5 Mbps
Writing library : core 148 r2795 aaa9aa8
Encoding settings : cabac=1 / ref=5 / deblock=1:-3:-3 / analyse=0x3:0x133 / me=umh / subme=11 / psy=1 / psy_rd=1,00:0,15 / mixed_ref=1 / me_range=48 / chroma_me=1 / trellis=2 / 8x8dct=1 / cqm=0 / deadzone=21,11 / fast_pskip=0 / chroma_qp_offset=-3 / threads=6 / lookahead_threads=1 / sliced_threads=0 / nr=0 / decimate=1 / interlaced=0 / bluray_compat=0 / constrained_intra=0 / bframes=8 / b_pyramid=2 / b_adapt=2 / b_bias=0 / direct=3 / weightb=1 / open_gop=0 / weightp=2 / keyint=240 / keyint_min=24 / scenecut=40 / intra_refresh=0 / rc_lookahead=60 / rc=crf / mbtree=0 / crf=16,0 / qcomp=0,60 / qpmin=0 / qpmax=69 / qpstep=4 / vbv_maxrate=62500 / vbv_bufsize=78125 / crf_max=0,0 / nal_hrd=none / filler=0 / ip_ratio=1,40 / pb_ratio=1,30 / aq=1:1,00
Language : English
Default : Yes
Forced : Yes
Color range : Limited
Color primaries : BT.709
Transfer characteristics : BT.709
Matrix coefficients : BT.709

Audio #1
ID : 2
Format : AC-3
Format/Info : Audio Coding 3
Codec ID : A_AC3
Duration : 2 h 46 min
Bit rate mode : Constant
Bit rate : 640 kb/s
Channel(s) : 6 channels
Channel positions : Front: L C R, Side: L R, LFE
Sampling rate : 48.0 kHz
Frame rate : 31.250 FPS (1536 SPF)
Bit depth : 16 bits
Compression mode : Lossy
Stream size : 760 MiB (4%)
Title : 5.1 @ 640 Kbps
Language : Ukrainian
Service kind : Complete Main
Default : Yes
Forced : Yes

Audio #2
ID : 3
Format : AC-3
Format/Info : Audio Coding 3
Codec ID : A_AC3
Duration : 2 h 46 min
Bit rate mode : Constant
Bit rate : 640 kb/s
Channel(s) : 6 channels
Channel positions : Front: L C R, Side: L R, LFE
Sampling rate : 48.0 kHz
Frame rate : 31.250 FPS (1536 SPF)
Bit depth : 16 bits
Compression mode : Lossy
Stream size : 760 MiB (4%)
Title : 5.1 @ 640 Kbps
Language : English
Service kind : Complete Main
Default : No
Forced : No

Text #1
ID : 4
Format : PGS
Codec ID : S_HDMV/PGS
Codec ID/Info : Picture based subtitle format used on BDs/HD-DVDs
Duration : 2 h 42 min
Bit rate : 127 b/s
Count of elements : 18
Stream size : 152 KiB (0%)
Title : Forced
Language : Ukrainian
Default : Yes
Forced : Yes

Text #2
ID : 5
Format : PGS
Codec ID : S_HDMV/PGS
Codec ID/Info : Picture based subtitle format used on BDs/HD-DVDs
Duration : 2 h 45 min
Bit rate : 31.2 kb/s
Count of elements : 4092
Stream size : 37.0 MiB (0%)
Language : English
Default : No
Forced : No
Скріншоти











Джерело: &
Особиста оцінка: 8 - мені сподобалося


 Трекер:    Зареєстрований   

Завантажити / скачати фільм українською



відео для новачків



 Зареєстрований:   2018-03-15 13:39
 Розмір:   17.2 GB 
 Оцінка фільму:   9.8/10 (Голосів: 16)
   
Corvinus 
Новенький


З нами з: 02.01.13
Востаннє: 01.03.19
Повідомлень: 21

2018-03-15 16:17  
10 з 10 фільмові! Давно чекав в українській озвучці)
Lyolic 
VIP


З нами з: 04.08.09
Востаннє: 23.05.19
Повідомлень: 359

2018-03-15 20:59  
Corvinus
Так він давно вже вже є українською...

Corvinus 
Новенький


З нами з: 02.01.13
Востаннє: 01.03.19
Повідомлень: 21

2018-03-15 21:22  
Lyolic написано:
Так він давно вже вже є українською...

Дивно, мабуть я не потрапляв) Але все ж таки якість + переклад) Сподіваюсь буде норм озвучка

igor911 
Модератор відео


З нами з: 18.01.08
Востаннє: 23.05.19
Повідомлень: 12528

2018-03-15 22:20  
Поставив "золото" на тиждень для заохочення підтримки.
Corvinus 
Новенький


З нами з: 02.01.13
Востаннє: 01.03.19
Повідомлень: 21

2018-03-15 23:13  
igor911 написано:
Поставив "золото" на тиждень для заохочення підтримки.

цього і чекав) Тепер качаю)))

Argentum 
Поважний учасник


З нами з: 25.09.11
Востаннє: 23.05.19
Повідомлень: 200

2018-03-16 00:12  
igor911 написано:
Поставив "золото" на тиждень для заохочення підтримки.

Дякую

Kumcheg1995 
Частий відвідувач


З нами з: 05.01.17
Востаннє: 22.05.19
Повідомлень: 27

2018-03-16 22:30  
Офігєнний фільм 100/10
Ваш часовий пояс: GMT + 2 Години

Нова тема   Відповісти