Маска / The Mask (1994) 1080p 2хUkr/Eng | Sub Eng

Нові коментарі

Нова тема   Відповісти
Автор Повідомлення
boroznaya 
Попереджень: 1
Попереджень: 1 


З нами з: 02.11.12
Востаннє: 24.09.20
Повідомлень: 2938

2018-03-15 13:29  
Маска / The Mask (1994) 1080p 2хUkr/Eng | Sub Eng

Маска / The Mask (1994) 1080p 2хUkr/Eng | Sub Eng

«Був ніким - став героєм»


Жанр: комедія, фентезі
Країна: США



Кінокомпанія: New Line Cinema, Dark Horse Entertainment
Режисер: Чак Рассел
Актори: Джим Керрі, Кемерон Діаз, Пітер Рігерт, Пітер Грін, Емі Ясбек, Річард Джені, Ненсі Фіш, Орестес Матас, Джим Доугхан, Айворі Оушн

Сюжет:
Здавалося б, звичайна дерев'яна маска, яку Стенлі Іпкіс виловив з води міської річки, надає цьому простому, невдалому банківському працівникові, якого топчуть всі і вся, надзвичайної сили. Вдягнувши її, він перетворюється на комічного героя, що абсолютно не зважає на закони фізики та природи. За мить він зачаровує молоду білявку Тіну і руйнує плани її коханця - міського кримінального авторитета.


Тривалість: 01:41:12
Якість: 1080p

Відео:
кодек:
розмір кадру: 1920x1080
бітрейт: 12,6 Мб/с

Аудіо # 1: [VHS]
мова: українська
переклад: двоголосий закадровий
кодек: 2.0
бітрейт: 192 кб/с

Аудіо # 2: ,
мова: українська
переклад: двоголосий закадровий
кодек: 2.0
бітрейт: 192 кб/с

Аудіо # 3:
мова: англійська
переклад: оригінал
кодек: 5.1
бітрейт: 1510 кб/с

Субтитри: [SDH]
мова: англійська
тип: програмні (м'які)
формат: *.srt

Субтитри:
мова: англійська
тип: програмні (м'які)
формат: *.srt
Info
D:\Завантаження\The Mask (1997) [2xUkr, Eng, 2x Sub. Eng] 1080p [Hurtom].
General
Unique ID : 256141100066340285901515585177448407201 (0xC0B2FB410091B71DF6C594E25858E0A1)
Complete name : D:\Завантаження\The Mask (1997) [2xUkr, Eng, 2x Sub. Eng] 1080p [Hurtom].
Format :
Format version : Version 4 / Version 2
File size : 10.2 GiB
Duration : 1h 41mn
Overall bit rate : 14.5 Mbps
Movie name : -=RbM=-
Encoded date : UTC 2018-03-15 09:45:20
Writing application : v20.0.0 ('I Am The Sun') 64-bit
Writing library : libebml v1.3.5 + v1.4.8
DURATION : 01:40:18.376000000
NUMBER_OF_FRAMES : 1060
NUMBER_OF_BYTES : 28108
_STATISTICS_WRITING_APP : v20.0.0 ('I Am The Sun') 64-bit
_STATISTICS_WRITING_DATE_UTC : 2018-03-15 09:45:20
_STATISTICS_TAGS : BPS DURATION NUMBER_OF_FRAMES NUMBER_OF_BYTES

Video #1
ID : 1
Format : AVC
Format/Info : Advanced Video Codec
Format profile : [email protected]
Format settings, CABAC : Yes
Format settings, ReFrames : 4 frames
Codec ID : V_MPEG4/ISO/AVC
Duration : 1h 41mn
Bit rate : 12.6 Mbps
Width : 1 920 pixels
Height : 1 080 pixels
Display aspect ratio : 16:9
Frame rate : 23.976 fps
Color space : YUV
Chroma subsampling : 4:2:0
Bit depth : 8 bits
Scan type : Progressive
Bits/(Pixel*Frame) : 0.253
Stream size : 8.70 GiB (85%)
Title : 67% of the original
Writing library : core 140 r2377+40 929f149 tMod [[email protected] X86_64]
Encoding settings : cabac=1 / ref=4 / deblock=1:-3:-3 / analyse=0x3:0x133 / me=umh / subme=11 / psy=1 / fade_compensate=0.00 / psy_rd=1.15:0.00 / mixed_ref=1 / me_range=32 / chroma_me=1 / trellis=2 / 8x8dct=1 / cqm=0 / deadzone=21,11 / fast_pskip=0 / chroma_qp_offset=-2 / threads=12 / lookahead_threads=2 / sliced_threads=0 / nr=0 / decimate=1 / interlaced=0 / bluray_compat=0 / constrained_intra=0 / fgo=0 / bframes=8 / b_pyramid=2 / b_adapt=2 / b_bias=0 / direct=3 / weightb=1 / open_gop=0 / weightp=2 / keyint=250 / keyint_min=23 / scenecut=40 / intra_refresh=0 / rc_lookahead=80 / rc=2pass / mbtree=1 / bitrate=12600 / ratetol=1.0 / qcomp=0.70 / qpmin=0:0:0 / qpmax=69:69:69 / qpstep=4 / cplxblur=20.0 / qblur=0.5 / ip_ratio=1.40 / aq=4:0.85 / aq-sensitivity=10.00 / aq-factor=1.00:1.00:1.00 / aq2=0 / aq3=0
Language : English
Default : Yes
Forced : No
DURATION : 01:41:12.442000000
NUMBER_OF_FRAMES : 145593
NUMBER_OF_BYTES : 9557211579
_STATISTICS_WRITING_APP : v20.0.0 ('I Am The Sun') 64-bit
_STATISTICS_WRITING_DATE_UTC : 2018-03-15 09:45:20
_STATISTICS_TAGS : BPS DURATION NUMBER_OF_FRAMES NUMBER_OF_BYTES

Audio #2
ID : 2
Format : AC-3
Format/Info : Audio Coding 3
Mode extension : CM (complete main)
Codec ID : A_AC3
Duration : 1h 41mn
Bit rate mode : Constant
Bit rate : 192 Kbps
Channel(s) : 2 channels
Channel positions : Front: L R
Sampling rate : 48.0 KHz
Bit depth : 16 bits
Compression mode : Lossy
Stream size : 139 MiB (1%)
Title : 1+1
Language : Ukrainian
Default : Yes
Forced : No

Audio #3
ID : 3
Format : AC-3
Format/Info : Audio Coding 3
Mode extension : CM (complete main)
Codec ID : A_AC3
Duration : 1h 41mn
Bit rate mode : Constant
Bit rate : 192 Kbps
Channel(s) : 2 channels
Channel positions : Front: L R
Sampling rate : 48.0 KHz
Bit depth : 16 bits
Compression mode : Lossy
Stream size : 139 MiB (1%)
Title : Новий, Ictv
Language : Ukrainian
Default : No
Forced : No

Audio #4
ID : 4
Format :
Format/Info : Digital Theater Systems
Codec ID : A_DTS
Duration : 1h 41mn
Bit rate mode : Constant
Bit rate : 1 510 Kbps
Channel(s) : 6 channels
Channel positions : Front: L C R, Side: L R, LFE
Sampling rate : 48.0 KHz
Bit depth : 16 bits
Compression mode : Lossy
Stream size : 1.07 GiB (10%)
Title : Original 5.1ch 1510kbps
Language : English
Default : No
Forced : No

Text #5
ID : 5
Format : UTF-8
Codec ID : S_TEXT/UTF8
Codec ID/Info : UTF-8 Plain Text
Language : English
Default : Yes
Forced : No

Text #6
ID : 6
Format : UTF-8
Codec ID : S_TEXT/UTF8
Codec ID/Info : UTF-8 Plain Text
Language : English
Default : No
Forced : No
Скріншоти







Подяка:
Доріжка №1 та синхрон - robotron005,
Запис доріжки №2 - olgaya (синхрон - robotron005)
Постер - hellforces

Джерело:
Особиста оцінка: 10 - без зайвих вагань рекомендую всім!


Срібний реліз (на рейтинг впливає 50% завантаженого)
 Трекер:    Зареєстрований   

Завантажити / скачати фільм українською



відео для новачків



 Зареєстрований:   2018-03-18 15:51
 Розмір:   10.24 GB 
 Оцінка фільму:   9.6/10 (Голосів: 33)
   
Інші релізи
   Маска / The Mask (1994) 720p 2хUkr/Eng | Sub Eng antik_2008  4 / 0   5.06 GB   2020-04-27 12:38 
   Маска / The Mask (1994) Remux 1080p 2хUkr/Eng | Sub Eng antik_2008  5 / 0   15.36 GB   2020-04-27 12:28 
   Маска / The Mask (1994) AVC 2хUkr/Eng | Sub Eng staf777  7 / 0   2.09 GB   2019-12-18 15:51 
   Маска / The Mask (1994) 1080p H.265 2хUkr/Eng | Sub Eng -Star-Lord-  7 / 0   6.55 GB   2019-12-17 15:37 
   Маска / The Mask (1994) 2хUkr/Eng | Sub Eng robotron005  12 / 0   2.05 GB   2015-11-22 16:50 
   Маска / The Mask (1994) 1080p-mini Zeus62  5 / 0   4.35 GB   2011-05-13 01:35 
nazikys 
Новенький


З нами з: 03.10.09
Востаннє: 01.05.20
Повідомлень: 11

2018-03-17 19:33  
Коли реліз?
boroznaya 
Попереджень: 1
Попереджень: 1 


З нами з: 02.11.12
Востаннє: 24.09.20
Повідомлень: 2938

2018-03-18 15:57  
Фільм "Маска" на роздачі!
Всім приємного перегляду!

mr. blef 
Частий відвідувач


З нами з: 26.02.18
Востаннє: 14.09.20
Повідомлень: 47

2018-03-19 19:41  
boroznaya
Наскільки я розумію, Ви робите ставку на всіма улюблені фільми з далеких 90-х років.
Це дуже добре, адже, як правило, вони у ті часи не мали настільки хорошої якості, як зараз.
Проте, є одне "але", дані фільми вже давно-давним в усіх на слуху, і зараз навіть дуже хорошою
їх якістю нікого не здивувати, адже, у 10-те чи 20-те мало хто їх перегляне. Без образ, звісно!
Щиро поважаю Вашу важку роботу, як і кожного Гуртомівця. Дай Вам Боже сили та витривалості!
Щоправда, фільму не вантажитиму, адже за стільки переглядів - знаю вже на зубок! З повагою!

boroznaya 
Попереджень: 1
Попереджень: 1 


З нами з: 02.11.12
Востаннє: 24.09.20
Повідомлень: 2938

2018-03-19 19:57  
mr. blef
Розумію Вашу позицію щодо переглядів і завантажень даного фільму.
Але, як би там не було, все ж люди вантажать. Тому, відповідно, комусь ще й досі цікаво.

mutomba 
VIP


З нами з: 20.10.13
Востаннє: 24.09.20
Повідомлень: 361

2018-03-20 18:16  
А я обожнюю іноді передивлятись старі фільми. Happy

Питання таке: а доріжки від нового та айсітіві тут 2.0,
а в цьому релізі https://toloka.to/t24288 5.1...

У вказаному мною релізі "дутий" 5.1 чи реально накладені репліки на центр багатоканального звуку?
Ніхто не цікавився?

Valinjuha88 
Новенький


З нами з: 25.11.16
Востаннє: 25.08.20
Повідомлень: 3

2018-07-25 23:09  
Допоможііііть!!! Ще трохи залишилось!!! Швидкість впала майже до нуля!!!
Ваш часовий пояс: GMT + 2 Години

Нова тема   Відповісти