Я, Тоня / I, Tonya (2017)

Нові коментарі

Нова тема   Відповісти
Автор Повідомлення
Anonymous 







2018-03-15 12:36  
Я, Тоня / I, Tonya (2017)

Я, Тоня / I, Tonya (2017)


Жанр: біографічний, драма, комедія, спорт
Країна: США

Оскар, Золотий глобус, премії Британської кіноакадемії та Гільдії акторів
Основні нагороди - детальніше:


Оскар, 2018 рік
Переможець (1):
Найкраща жіноча другорядна роль (Еллісон Дженні)



Золотий глобус, 2018 рік
Переможець (1):
Найкраща жіноча другорядна роль (Еллісон Дженні)



Британська академія (BAFTA), 2018 рік
Переможець (1):
Найкраща жіноча другорядна роль (Еллісон Дженні)



Гільдія акторів, 2018 рік
Переможець (1):
Найкраща жіноча другорядна роль (Еллісон Дженні)


Кінокомпанія: Clubhouse Pictures (II), LuckyChap Entertainment
Режисер: Крейґ Ґіллеспі / Craig Gillespie
Актори: Марґо Роббі / Margot Robbie, Себастіан Стен / Sebastian Stan, Еллісон Дженні / Allison Janney, Джуліанна Ніколсон / Julianne Nicholson, Пол Волтер Гаузер / Paul Walter Hauser, Боббі Каннавале / Bobby Cannavale, Бояна Новаковіч / Bojana Novakovic, Кейтлін Карвер / Caitlin Carver, МакКенна Ґрейс / Mckenna Grace, Джошуа Мікель / Joshua Mikel та інші

Сюжет:
Історія однієї з найкращих, відомих і скандальних фігуристок ХХ століття – Тоні Гардінг. Вона, на відміну від багатьох її колег, абсолютно не здається крихкою, тому що пройшла жорстку школу життя. Її мама Лавона Голден виховувала її в неймовірній строгості і постійній критиці – саме це допомогло Тоні вирости такою, якою вона стала. Дівчина сповнена протиріч: була неймовірно талановитою і перша у світі виконала потрійний аксель у конкурсній програмі, але найбільше її запам'ятали через жахливий характер. Для неї було нормально навіть нагрубити суддям. Але апогеєм життя Тоні став інцидент з Ненсі Керріган, коли Гардінг разом зі своїм чоловіком найняли незнайомця, щоб той зламав ногу головній конкурентці фігуристки.
Офіційні українські відео та трейлер:

промо #1:


промо #2:


трейлер:

Рейтинг MPAA: R - особам до 17 років обов'язкова присутність батьків або дорослого опікуна
Вікова категорія: 16+
Тривалість: 01:59:58
Якість: [Hurtom, джерело - Remux]
Відео:
кодек:
розмір кадру: 720 х 304
бітрейт: 1528 Кб/с

Аудіо:
мова: українська
переклад: професійний дубльований | студія Tretyakoff production
кодек: 2.0
бітрейт: 192 кб/с
Info
Код:
General
Complete name               : I, Tonya (2017) [Ukr] [Hurtom].avi
Format                      : AVI
Format/Info                 : Audio Video Interleave
File size                   : 1.45 GiB
Duration                    : 1 h 59 min
Overall bit rate            : 1 729 kb/s
Movie name                  : Я, Тоня / I, Tonya (2017) [Ukr] [Hurtom]
Genre                       : біографічний, драма, комедія, спорт
Writing application         : VirtualDubModUkr 1.5.10.2 (build 2542/release)
Writing library             : VirtualDubMod build 2542/release
Comment                     : https://toloka.to/t88509 15.03.2018

Video
ID                          : 0
Format                      : MPEG-4 Visual
Format profile              : Advanced [email protected]
Format settings             : BVOP1
Format settings, BVOP       : 1
Format settings, QPel       : No
Format settings, GMC        : No warppoints
Format settings, Matrix     : Default (MPEG)
Codec ID                    :
Codec ID/Hint               :
Duration                    : 1 h 59 min
Bit rate                    : 1 528 kb/s
Width                       : 720 pixels
Height                      : 304 pixels
Display aspect ratio        : 2.35:1
Frame rate                  : 23.976 (24000/1001) FPS
Color space                 : YUV
Chroma subsampling          : 4:2:0
Bit depth                   : 8 bits
Scan type                   : Progressive
Compression mode            : Lossy
Bits/(Pixel*Frame)          : 0.291
Stream size                 : 1.28 GiB (88%)
Writing library             : 67

Audio
ID                          : 1
Format                      : AC-3
Format/Info                 : Audio Coding 3
Codec ID                    : 2000
Duration                    : 1 h 59 min
Bit rate mode               : Constant
Bit rate                    : 192 kb/s
Channel(s)                  : 2 channels
Channel positions           : Front: L R
Sampling rate               : 48.0 kHz
Frame rate                  : 31.250 FPS (1536 SPF)
Bit depth                   : 16 bits
Compression mode            : Lossy
Stream size                 : 165 MiB (11%)
Alignment                   : Split accross interleaves
Interleave, duration        : 42  ms (1.00 video frame)
Interleave, preload duratio : 500  ms
Title                       : UKR DUB [Megogo]
Service kind                : Complete Main


Джерело:
Подяка сайту uafilm.tv за придбану доріжку, синхронізація Electroz


 Трекер:    Зареєстрований   

Завантажити / скачати фільм українською



відео для новачків



 Зареєстрований:   2018-03-15 20:42
 Розмір:   1.45 GB 
 Оцінка фільму:   8.5/10 (Голосів: 36)
   
Інші релізи
   Я, Тоня / I, Tonya (2017) Remux 1080p Ukr/Eng | Sub Eng igor911  6 / 0   28.21 GB   2018-03-15 21:41 
   Я, Тоня / I, Tonya (2017) 720p Ukr/Eng | Sub Eng 11FrYkT  22 / 0   7.24 GB   2018-03-15 21:20 
   Я, Тоня / I, Tonya (2017) Ukr/Eng | Sub Eng igor911  27 / 0   2.18 GB   2018-03-15 21:06 
   Я, Тоня / I, Tonya (2017) 1080p Ukr/Eng | Sub Eng Electroz  15 / 1   12.01 GB   2018-03-15 19:13 
   Я, Тоня / I, Tonya (2017) AVC Ukr/Eng | Sub Eng Electroz  53 / 4   1.45 GB   2018-03-15 19:13 
qwerjar 
Свій


З нами з: 10.07.10
Востаннє: 15.10.18
Повідомлень: 104

2018-03-21 22:54  
Жосткий фільм. Це не намріяний "Біллі Еліот" чи"Жовтневе небо"... Це трохи інша сторона, та, де сміятись можна тільки з сарказму, бо все через ср*ку.
Ваш часовий пояс: GMT + 2 Години

Нова тема   Відповісти