Я, Тоня / I, Tonya (2017) Ukr/Eng | Sub Eng

Нові коментарі

Нова тема   Відповісти
Автор Повідомлення
Anonymous 







2018-03-15 11:36  
Я, Тоня / I, Tonya (2017) Ukr/Eng | Sub Eng

Я, Тоня / I, Tonya (2017) Ukr/Eng | Sub Eng


Жанр: біографічний, драма, комедія, спорт
Країна: США

Оскар, Золотий глобус, премії Британської кіноакадемії та Гільдії акторів
Основні нагороди - детальніше:


Оскар, 2018 рік
Переможець (1):
Найкраща жіноча другорядна роль (Еллісон Дженні)



Золотий глобус, 2018 рік
Переможець (1):
Найкраща жіноча другорядна роль (Еллісон Дженні)



Британська академія (BAFTA), 2018 рік
Переможець (1):
Найкраща жіноча другорядна роль (Еллісон Дженні)



Гільдія акторів, 2018 рік
Переможець (1):
Найкраща жіноча другорядна роль (Еллісон Дженні)


Кінокомпанія: Clubhouse Pictures (II), LuckyChap Entertainment
Режисер: Крейґ Ґіллеспі / Craig Gillespie
Актори: Марґо Роббі / Margot Robbie, Себастіан Стен / Sebastian Stan, Еллісон Дженні / Allison Janney, Джуліанна Ніколсон / Julianne Nicholson, Пол Волтер Гаузер / Paul Walter Hauser, Боббі Каннавале / Bobby Cannavale, Бояна Новаковіч / Bojana Novakovic, Кейтлін Карвер / Caitlin Carver, МакКенна Ґрейс / Mckenna Grace, Джошуа Мікель / Joshua Mikel та інші

Сюжет:
Історія однієї з найкращих, відомих і скандальних фігуристок ХХ століття – Тоні Гардінг. Вона, на відміну від багатьох її колег, абсолютно не здається крихкою, тому що пройшла жорстку школу життя. Її мама Лавона Голден виховувала її в неймовірній строгості і постійній критиці – саме це допомогло Тоні вирости такою, якою вона стала. Дівчина сповнена протиріч: була неймовірно талановитою і перша у світі виконала потрійний аксель у конкурсній програмі, але найбільше її запам'ятали через жахливий характер. Для неї було нормально навіть нагрубити суддям. Але апогеєм життя Тоні став інцидент з Ненсі Керріган, коли Гардінг разом зі своїм чоловіком найняли незнайомця, щоб той зламав ногу головній конкурентці фігуристки.
Офіційні українські відео та трейлер:

промо #1:


промо #2:


трейлер:

Рейтинг MPAA: R - особам до 17 років обов'язкова присутність батьків або дорослого опікуна
Вікова категорія: 16+
Тривалість: 01:59:58
Якість: [Hurtom, джерело - Remux]
Відео:
кодек:
розмір кадру: 720 х 304
бітрейт: 1947 Кб/с

Аудіо # 1:
мова: українська
переклад: професійний дубльований | студія Tretyakoff production
кодек: 2.0
бітрейт: 192 кб/с

Аудіо # 2:
мова: англійська
переклад: оригінал
кодек: 5.1
бітрейт: 448 кб/с

Субтитри:
мова: англійська
тип: програмні (м'які)
формат: *.srt
Info
Код:
General
Complete name               : I, Tonya (2017) [Ukr,Eng] [Hurtom].avi
Format                      : AVI
Format/Info                 : Audio Video Interleave
Format profile              : OpenDML
File size                   : 2.18 GiB
Duration                    : 1 h 59 min
Overall bit rate            : 2 605 kb/s
Movie name                  : Я, Тоня / I, Tonya (2017) [Ukr,Eng] [Hurtom]
Genre                       : біографічний, драма, комедія, спорт
Writing application         : VirtualDubModUkr 1.5.10.2 (build 2542/release)
Writing library             : VirtualDubMod build 2542/release
Comment                     : https://toloka.to/t88508 15.03.2018

Video
ID                          : 0
Format                      : MPEG-4 Visual
Format profile              : Advanced [email protected]
Format settings             : BVOP1
Format settings, BVOP       : 1
Format settings, QPel       : No
Format settings, GMC        : No warppoints
Format settings, Matrix     : Default (MPEG)
Codec ID                    :
Codec ID/Hint               :
Duration                    : 1 h 59 min
Bit rate                    : 1 947 kb/s
Width                       : 720 pixels
Height                      : 304 pixels
Display aspect ratio        : 2.35:1
Frame rate                  : 23.976 (24000/1001) FPS
Color space                 : YUV
Chroma subsampling          : 4:2:0
Bit depth                   : 8 bits
Scan type                   : Progressive
Compression mode            : Lossy
Bits/(Pixel*Frame)          : 0.371
Stream size                 : 1.63 GiB (75%)
Writing library             : 67

Audio #1
ID                          : 1
Format                      : AC-3
Format/Info                 : Audio Coding 3
Codec ID                    : 2000
Duration                    : 1 h 59 min
Bit rate mode               : Constant
Bit rate                    : 192 kb/s
Channel(s)                  : 2 channels
Channel positions           : Front: L R
Sampling rate               : 48.0 kHz
Frame rate                  : 31.250 FPS (1536 SPF)
Bit depth                   : 16 bits
Compression mode            : Lossy
Stream size                 : 165 MiB (7%)
Alignment                   : Split accross interleaves
Interleave, duration        : 42  ms (1.00 video frame)
Interleave, preload duratio : 500  ms
Title                       : UKR DUB [Megogo]
Service kind                : Complete Main

Audio #2
ID                          : 2
Format                      : AC-3
Format/Info                 : Audio Coding 3
Codec ID                    : 2000
Duration                    : 1 h 59 min
Bit rate mode               : Constant
Bit rate                    : 448 kb/s
Channel(s)                  : 6 channels
Channel positions           : Front: L C R, Side: L R, LFE
Sampling rate               : 48.0 kHz
Frame rate                  : 31.250 FPS (1536 SPF)
Bit depth                   : 16 bits
Compression mode            : Lossy
Stream size                 : 384 MiB (17%)
Alignment                   : Split accross interleaves
Interleave, duration        : 42  ms (1.00 video frame)
Interleave, preload duratio : 500  ms
Title                       : ENG
Service kind                : Complete Main


Джерело:
Подяка сайту uafilm.tv за придбану доріжку, синхронізація Electroz


 Трекер:    Зареєстрований   

Завантажити / скачати фільм українською



відео для новачків



 Зареєстрований:   2018-03-15 20:06
 Розмір:   2.18 GB 
 Оцінка фільму:   9/10 (Голосів: 29)
   
Інші релізи
   Я, Тоня / I, Tonya (2017) Remux 1080p Ukr/Eng | Sub Eng igor911  6 / 0   28.21 GB   2018-03-15 20:41 
   Я, Тоня / I, Tonya (2017) 720p Ukr/Eng | Sub Eng 11FrYkT  13 / 0   7.24 GB   2018-03-15 20:20 
   Я, Тоня / I, Tonya (2017) igor911  8 / 3   1.45 GB   2018-03-15 19:42 
   Я, Тоня / I, Tonya (2017) 1080p Ukr/Eng | Sub Eng Electroz  7 / 0   12.01 GB   2018-03-15 18:13 
   Я, Тоня / I, Tonya (2017) AVC Ukr/Eng | Sub Eng Electroz  18 / 4   1.45 GB   2018-03-15 18:13 
don pedro 
Попереджень: 1
Попереджень: 1 


З нами з: 29.06.11
Востаннє: 12.12.18
Повідомлень: 12608

2018-03-15 11:37  
Оскільки славні кінопрокатники продинамили мене з можливістю переглянути цей фільму на великому екрані, я без жодних докорів сумління скачаю його тут. Всім привіт.
Obey 
Свій


З нами з: 12.06.11
Востаннє: 11.12.18
Повідомлень: 76

2018-03-15 12:44  
+1, Бачив трейлер, цікаво буде подивитись
antik_2008 
Релізер і модератор відео


З нами з: 20.10.08
Востаннє: 12.12.18
Повідомлень: 1694

2018-03-15 13:39  
Цікавий фільм.
don pedro 
Попереджень: 1
Попереджень: 1 


З нами з: 29.06.11
Востаннє: 12.12.18
Повідомлень: 12608

2018-03-22 21:45  
Переглянув. Гарна біографія. У самому сюжеті нічого особливого немає: чергова боротьба за безглузді рекорди і місця. Втім, фільм чудово знятий, він сповнений чорного гумору та кожен із задіяних у ньому акторів працював на повну силу. Сподобались усі актори. Особливо Еллісон Дженні. Цілком заслужений "Оскар". І, як виявилось, Марго Роббі - справжня актриса, яка може зобразити все, що треба, і може працювати над собою заради ролі (а це рідко хто вміє). загалом, чудова драма з часткою чорної комедії про відносини батьків та дітей і професійне зростання/падіння. Загальна мораль фільму: тебе підставлять найближчі. Шкода тільки, що про Оксану Баюл сказано трішки, а вона тоді, якщо я правильно пам'ятаю, стала олімпійською чемпіонкою.
Раджу до перегляду.

yizhak 
Новенький


З нами з: 28.08.11
Востаннє: 10.12.18
Повідомлень: 6

2018-03-28 22:19  
Класний фільм, особливо цікавий тим хто пам'ятає сумнозвісну історію "Хардінґ - Керріґан"... ніби переживаєш все з початку, але трохи під іншим кутом бачення
Матійченко 
Поважний учасник


З нами з: 11.06.08
Востаннє: 11.12.18
Повідомлень: 247

2018-04-02 19:20  
Як любитель екранізацій спортивних біографій, не пожалкував, що переглянув. Думаю, по біографії Баюл не гірший фільм міг вийти, але ми поки не прийшли до зйомки подібних стрічок. На жаль.
Ваш часовий пояс: GMT + 2 Години

Нова тема   Відповісти