Я, Тоня / I, Tonya (2017) Remux 1080p Ukr/Eng | Sub Eng

Нові коментарі

Нова тема   Відповісти
Автор Повідомлення
Anonymous 







2018-03-15 12:09  
Я, Тоня / I, Tonya (2017) Remux 1080p Ukr/Eng | Sub Eng

Я, Тоня / I, Tonya (2017) Remux 1080p Ukr/Eng | Sub Eng


Жанр: біографічний, драма, комедія, спорт
Країна: США

Оскар, Золотий глобус, премії Британської кіноакадемії та Гільдії акторів
Основні нагороди - детальніше:


Оскар, 2018 рік
Переможець (1):
Найкраща жіноча другорядна роль (Еллісон Дженні)



Золотий глобус, 2018 рік
Переможець (1):
Найкраща жіноча другорядна роль (Еллісон Дженні)



Британська академія (BAFTA), 2018 рік
Переможець (1):
Найкраща жіноча другорядна роль (Еллісон Дженні)



Гільдія акторів, 2018 рік
Переможець (1):
Найкраща жіноча другорядна роль (Еллісон Дженні)


Кінокомпанія: Clubhouse Pictures (II), LuckyChap Entertainment
Режисер: Крейґ Ґіллеспі / Craig Gillespie
Актори: Марґо Роббі / Margot Robbie, Себастіан Стен / Sebastian Stan, Еллісон Дженні / Allison Janney, Джуліанна Ніколсон / Julianne Nicholson, Пол Волтер Гаузер / Paul Walter Hauser, Боббі Каннавале / Bobby Cannavale, Бояна Новаковіч / Bojana Novakovic, Кейтлін Карвер / Caitlin Carver, МакКенна Ґрейс / Mckenna Grace, Джошуа Мікель / Joshua Mikel та інші

Сюжет:
Історія однієї з найкращих, відомих і скандальних фігуристок ХХ століття – Тоні Гардінг. Вона, на відміну від багатьох її колег, абсолютно не здається крихкою, тому що пройшла жорстку школу життя. Її мама Лавона Голден виховувала її в неймовірній строгості і постійній критиці – саме це допомогло Тоні вирости такою, якою вона стала. Дівчина сповнена протиріч: була неймовірно талановитою і перша у світі виконала потрійний аксель у конкурсній програмі, але найбільше її запам'ятали через жахливий характер. Для неї було нормально навіть нагрубити суддям. Але апогеєм життя Тоні став інцидент з Ненсі Керріган, коли Гардінг разом зі своїм чоловіком найняли незнайомця, щоб той зламав ногу головній конкурентці фігуристки.
Офіційні українські відео та трейлер:

промо #1:


промо #2:


трейлер:

Рейтинг MPAA: R - особам до 17 років обов'язкова присутність батьків або дорослого опікуна
Вікова категорія: 16+
Тривалість: 01:59:58
Якість: Remux 1080p
Відео:
кодек:
розмір кадру: 1920 х 1080
бітрейт: 29,8 Мб/с

Аудіо # 1:
мова: українська
переклад: професійний дубльований | студія Tretyakoff production
кодек: 2.0
бітрейт: 192 кб/с

Аудіо # 2:
мова: англійська
переклад: оригінал
кодек: -HD 5.1
бітрейт: 3643 кб/с

Субтитри:
мова: англійська
тип: програмні (м'які)
формат: *.srt

Збережено оригінальні розділи, як на Blu-ray
Info
Код:
Complete name               : I, Tonya (2017) [Ukr,Eng sub.Eng] Remux 1080p [Hurtom].
Format                      :
Format version              : Version 4 / Version 2
File size                   : 28.2 GiB
Duration                    : 1 h 59 min
Overall bit rate mode       : Variable
Overall bit rate            : 33.7 Mb/s
Movie name                  : Я, Тоня / I, Tonya (2017) [Ukr,Eng sub.Eng] Remux 1080p [Hurtom]
Released date               : 2017
Encoded date                : UTC 2018-03-15 18:14:11
Writing application         : v21.0.0 ('Tardigrades Will Inherit The Earth') 64-bit
Writing library             : libebml v1.3.5 + v1.4.8
Cover                       : Yes
Comment                     : http://www.imdb.com/title/tt5580036/
Attachments                 : cover.jpg
ARTIST                      : Марґо Роббі / Margot Robbie, Себастіан Стен / Sebastian Stan, Еллісон Дженні / Allison Janney, Джуліанна Ніколсон / Julianne Nicholson, Пол Волтер Гаузер / Paul Walter Hauser, Боббі Каннавале / Bobby Cannavale, Бояна Новаковіч / Bojana Novakovic, Кейтлін Карвер / Caitlin Carver, МакКенна Ґрейс / Mckenna Grace, Джошуа Мікель / Joshua Mikel та інші
DIRECTOR                    : Крейґ Ґіллеспі / Craig Gillespie
GENRE                       : біографічний, драма, комедія, спорт
SYNOPSIS                    : Історія однієї з найкращих, відомих і скандальних фігуристок ХХ століття – Тоні Гардінг. Вона, на відміну від багатьох її колег, абсолютно не здається крихкою, тому що пройшла жорстку школу життя. Її мама Лавона Голден виховувала її в неймовірній строгості і постійній критиці – саме це допомогло Тоні вирости такою, якою вона стала. Дівчина сповнена протиріч: була неймовірно талановитою і перша у світі виконала потрійний аксель у конкурсній програмі, але найбільше її запам'ятали через жахливий характер. Для неї було нормально навіть нагрубити суддям. Але апогеєм життя Тоні став інцидент з Ненсі Керріган, коли Гардінг разом зі своїм чоловіком найняли незнайомця, щоб той зламав ногу головній конкурентці фігуристки...
Url                         : https://toloka.to/t88507

Video
ID                          : 1
Format                      : AVC
Format/Info                 : Advanced Video Codec
Format profile              : [email protected]
Format settings             : CABAC / 4 Ref Frames
Format settings, CABAC      : Yes
Format settings, ReFrames   : 4 frames
Codec ID                    : V_MPEG4/ISO/AVC
Duration                    : 1 h 59 min
Bit rate mode               : Variable
Bit rate                    : 29.8 Mb/s
Maximum bit rate            : 36.5 Mb/s
Width                       : 1 920 pixels
Height                      : 1 080 pixels
Display aspect ratio        : 16:9
Frame rate mode             : Constant
Frame rate                  : 23.976 (24000/1001) FPS
Color space                 : YUV
Chroma subsampling          : 4:2:0
Bit depth                   : 8 bits
Scan type                   : Progressive
Bits/(Pixel*Frame)          : 0.600
Stream size                 : 25.0 GiB (89%)
Title                       : Я, Тоня / I, Tonya (2017) Remux 1080p
Language                    : English
Default                     : Yes
Forced                      : No

Audio #1
ID                          : 2
Format                      : AC-3
Format/Info                 : Audio Coding 3
Codec ID                    : A_AC3
Duration                    : 1 h 59 min
Bit rate mode               : Constant
Bit rate                    : 192 kb/s
Channel(s)                  : 2 channels
Channel positions           : Front: L R
Sampling rate               : 48.0 kHz
Frame rate                  : 31.250 FPS (1536 SPF)
Bit depth                   : 16 bits
Compression mode            : Lossy
Stream size                 : 165 MiB (1%)
Title                       : Dub [Megogo] 2.0 192 Kbps
Language                    : Ukrainian
Service kind                : Complete Main
Default                     : Yes
Forced                      : Yes

Audio #2
ID                          : 3
Format                      :
Format/Info                 : Digital Theater Systems
Format profile              : MA / Core
Codec ID                    : A_DTS
Duration                    : 1 h 59 min
Bit rate mode               : Variable / Constant
Bit rate                    : 3 643 kb/s / 1 509 kb/s
Channel(s)                  : 6 channels
Channel positions           : Front: L C R, Side: L R, LFE
Sampling rate               : 48.0 kHz
Frame rate                  : 93.750 FPS (512 SPF)
Bit depth                   : 24 bits
Compression mode            : Lossless / Lossy
Stream size                 : 3.05 GiB (11%)
Title                       : Original, -HD MA 5.1 3643 Kbps
Language                    : English
Default                     : No
Forced                      : No

Text #1
ID                          : 4
Format                      : UTF-8
Codec ID                    : S_TEXT/UTF8
Codec ID/Info               : UTF-8 Plain Text
Duration                    : 1 h 58 min
Bit rate                    : 61 b/s
Count of elements           : 1779
Stream size                 : 53.2 KiB (0%)
Title                       : Eng full
Language                    : English
Default                     : No
Forced                      : No

Text #2
ID                          : 5
Format                      : UTF-8
Codec ID                    : S_TEXT/UTF8
Codec ID/Info               : UTF-8 Plain Text
Duration                    : 1 h 56 min
Bit rate                    : 83 b/s
Count of elements           : 1909
Stream size                 : 71.1 KiB (0%)
Title                       : Eng SDH
Language                    : English
Default                     : No
Forced                      : No

Text #3
ID                          : 6
Format                      : UTF-8
Codec ID                    : S_TEXT/UTF8
Codec ID/Info               : UTF-8 Plain Text
Duration                    : 1 h 56 min
Bit rate                    : 142 b/s
Count of elements           : 1909
Stream size                 : 121 KiB (0%)
Title                       : Eng Colored
Language                    : English
Default                     : No
Forced                      : No

Menu
00:00:00.000                : en:00:00:00.000
00:18:16.804                : en:00:18:16.804
00:36:27.685                : en:00:36:27.685
00:55:08.514                : en:00:55:08.514
01:11:49.597                : en:01:11:49.597
01:24:35.153                : en:01:24:35.153
01:36:46.968                : en:01:36:46.968
01:52:34.289                : en:01:52:34.289


Джерело: &
Подяка сайту uafilm.tv за придбану доріжку, синхронізація Electroz


Золотий реліз (завантажене не впливає на рейтинг)
 Трекер:    Зареєстрований   

Завантажити / скачати фільм українською



відео для новачків



 Зареєстрований:   2018-03-15 21:41
 Розмір:   28.21 GB 
 Оцінка фільму:   9.2/10 (Голосів: 19)
   
Інші релізи
   Я, Тоня / I, Tonya (2017) 720p Ukr/Eng | Sub Eng 11FrYkT  6 / 0   7.24 GB   2018-03-15 21:20 
   Я, Тоня / I, Tonya (2017) Ukr/Eng | Sub Eng igor911  9 / 0   2.18 GB   2018-03-15 21:06 
   Я, Тоня / I, Tonya (2017) igor911  13 / 0   1.45 GB   2018-03-15 20:42 
   Я, Тоня / I, Tonya (2017) 1080p Ukr/Eng | Sub Eng Electroz  4 / 0   12.01 GB   2018-03-15 19:13 
   Я, Тоня / I, Tonya (2017) AVC Ukr/Eng | Sub Eng Electroz  13 / 0   1.45 GB   2018-03-15 19:13 
Ваш часовий пояс: GMT + 2 Години

Нова тема   Відповісти