Темні часи / Darkest Hour (2017) Remux 1080p Ukr(Mic)/Eng | Sub Eng

Нові коментарі

Нова тема   Відповісти
Автор Повідомлення
staf777 
Попереджень: 1
Попереджень: 1 


З нами з: 16.11.16
Востаннє: 19.04.18
Повідомлень: 963

2018-03-15 10:57  
Темні часи / Darkest Hour (2017) Remux 1080p Ukr(Mic)/Eng | Sub Eng




Жанр: біографічний, військовий, драма, історичний
Країна: Велика Британія



Кінокомпанія: Universal Pictures, Focus Features, Working Title Films
Режисер: Джо Райт / Joe Wright
Актори: Ґері Олдмен / Gary Oldman, Крістін Скотт Томас / Kristin Scott Thomas, Бен Мендельсон / Ben Mendelsohn, Лілі Джеймс / Lily James, Стівен Діллейн / Stephen Dillane, Рональд Пікап / Ronald Pickup, Ніколас Джонс / Nicholas Jones, Семюел Вест / Samuel West, Девід Скофілд / David Schofield, Анна Барнетт / Anna Burnett, Піп Торренс / Pip Torrens та інші

Сюжет:
Початок Другої Світової війни. Франція вже впала під натиском агресії Адольфа Гітлера, далі - черга Великої Британії. Уряд острова зіштовхуються з вибором – продовжувати боротьбу або домовлятися про перемир'я. Начебто в нацистів і є перевага в силі, і велика частина армії Великої Британії перебуває в оточенні на пляжах Дюнкерка, але новообраний Прем'єр-Міністр Вінстон Черчилль має свій план дій. Він не збирається ні з ким домовлятися, адже розуміє, до яких наслідків це може призвести. Тільки заступивши на посаду і отримавши таку владу, Вінстон повинен контролювати незгодних міністрів і боротися за життя кожного громадянина Співдружності. Колись ця людина ввійде в історію.


Тривалість: 02:04:54
Якість: Remux 1080p
Відео:
кодек:
розмір кадру: 1920x1080
бітрейт: 31,4 Mб/с

Аудіо # 1:
мова: українська
переклад: професійний дубльований | Mic - Семпл для оцінки якості звуку
кодек: 2.0
бітрейт: 192 кб/с

Аудіо # 2:
мова: англійська
переклад: оригінал
кодек: -HD MA 7.1
бітрейт: 4218 кб/с

Аудіо # 3:
мова: англійська
переклад: оригінал
кодек: 5.1
бітрейт: 640 кб/с

Аудіо # 4:
мова: англійська
переклад: коментарі режисера Джо Райта
кодек: 2.0
бітрейт: 192 кб/с

Субтитри # 1:
мова: українська (форсовані)
тип: програмні (м'які)
формат: *.srt

Субтитри # 2:
мова: англійська (SDH)
тип: пререндерні
формат: *.pgs
Info
General
Unique ID : 212496577587287329161364732714519339233 (0x9FDD5A28D47A4DF8BE4D2869C767A0E1)
Complete name : H:\Майбутні релізи\ Darkest Hour (2017) Remux 1080p [Ukr Eng][Sub Eng][Hurtom].
Format :
Format version : Version 4 / Version 2
File size : 32.0 GiB
Duration : 2 h 4 min
Overall bit rate mode : Variable
Overall bit rate : 36.7 Mb/s
Movie name : Darkest Hour (2017) Remux 1080p [Ukr Eng][Sub Eng][Hurtom]
Encoded date : UTC 2018-03-15 12:42:57
Writing application : mkvmerge v9.8.0 ('Kuglblids') 64bit
Writing library : libebml v1.3.4 + libmatroska v1.4.5

Video
ID : 1
Format : AVC
Format/Info : Advanced Video Codec
Format profile : [email protected]
Format settings, CABAC : Yes
Format settings, ReFrames : 4 frames
Codec ID : V_MPEG4/ISO/AVC
Duration : 2 h 4 min
Bit rate mode : Variable
Bit rate : 31.4 Mb/s
Maximum bit rate : 34.0 Mb/s
Width : 1 920 pixels
Height : 1 080 pixels
Display aspect ratio : 16:9
Frame rate mode : Constant
Frame rate : 23.976 (24000/1001) FPS
Color space : YUV
Chroma subsampling : 4:2:0
Bit depth : 8 bits
Scan type : Progressive
Bits/(Pixel*Frame) : 0.631
Stream size : 27.4 GiB (86%)
Title : MPEG-4 AVC Video / 31590 kbps / 1080p / 23.976 fps / 16:9 / High Profile 4.1
Language : English
Default : Yes
Forced : No

Audio #1
ID : 2
Format : AC-3
Format/Info : Audio Coding 3
Mode extension : CM (complete main)
Format settings, Endianness : Big
Codec ID : A_AC3
Duration : 2 h 4 min
Bit rate mode : Constant
Bit rate : 192 kb/s
Channel(s) : 2 channels
Channel positions : Front: L R
Sampling rate : 48.0 kHz
Frame rate : 31.250 FPS (1536 spf)
Bit depth : 16 bits
Compression mode : Lossy
Stream size : 172 MiB (1%)
Title : [UA-DUB-Mic]
Language : Ukrainian
Default : Yes
Forced : Yes

Audio #2
ID : 3
Format : Atmos / TrueHD
Codec ID : A_TRUEHD
Duration : 2 h 4 min
Bit rate mode : Variable
Bit rate : 4 218 kb/s
Maximum bit rate : 6 609 kb/s
Channel(s) : Object Based / 8 channels
Channel positions : Object Based / Front: L C R, Side: L R, Back: L R, LFE
Sampling rate : / 48.0 kHz
Frame rate : 1 200.000 FPS (40 spf)
Compression mode : Lossless
Stream size : 3.68 GiB (11%)
Title : Dolby Atmos/TrueHD Audio / 7.1-Atmos / 48 kHz / 4858 kbps / 24-bit
Language : English
Default : No
Forced : No

Audio #3
ID : 4
Format : AC-3
Format/Info : Audio Coding 3
Mode extension : CM (complete main)
Format settings, Endianness : Big
Codec ID : A_AC3
Duration : 2 h 4 min
Bit rate mode : Constant
Bit rate : 640 kb/s
Channel(s) : 6 channels
Channel positions : Front: L C R, Side: L R, LFE
Sampling rate : 48.0 kHz
Frame rate : 31.250 FPS (1536 spf)
Bit depth : 16 bits
Compression mode : Lossy
Stream size : 572 MiB (2%)
Title : Compatibility Track (Dolby Digital Audio / 5.1 / 48 kHz / 640 kbps)
Language : English
Default : No
Forced : No

Audio #4
ID : 5
Format : AC-3
Format/Info : Audio Coding 3
Format profile : Dolby Digital
Mode extension : CM (complete main)
Format settings, Endianness : Big
Codec ID : A_AC3
Duration : 2 h 4 min
Bit rate mode : Constant
Bit rate : 192 kb/s
Channel(s) : 2 channels
Channel positions : Front: L R
Sampling rate : 48.0 kHz
Frame rate : 31.250 FPS (1536 spf)
Bit depth : 16 bits
Compression mode : Lossy
Stream size : 172 MiB (1%)
Title : Commentary by Director Joe Wright
Language : English
Default : No
Forced : No

Text #1
ID : 6
Format : UTF-8
Codec ID : S_TEXT/UTF8
Codec ID/Info : UTF-8 Plain Text
Duration : 1 h 59 min
Bit rate : 1 b/s
Count of elements : 16
Stream size : 1.61 KiB (0%)
Language : Ukrainian
Default : Yes
Forced : Yes

Text #2
ID : 7
Format : PGS
Muxing mode : zlib
Codec ID : S_HDMV/PGS
Codec ID/Info : Picture based subtitle format used on BDs/HD-DVDs
Duration : 1 h 57 min
Bit rate : 12.1 kb/s
Count of elements : 3628
Stream size : 10.2 MiB (0%)
Title : SDH
Language : English
Default : No
Forced : No

Menu
00:00:00.000 : en: Chapter 1
00:05:20.028 : en: Chapter 2
00:10:17.951 : en: Chapter 3
00:13:59.589 : en: Chapter 4
00:22:33.060 : en: Chapter 5
00:29:23.178 : en: Chapter 6
00:37:09.519 : en: Chapter 7
00:41:04.587 : en: Chapter 8
00:48:26.904 : en: Chapter 9
00:56:16.498 : en: Chapter 10
01:02:38.463 : en: Chapter 11
01:10:57.003 : en: Chapter 12
01:18:41.467 : en: Chapter 13
01:24:05.791 : en: Chapter 14
01:30:25.629 : en: Chapter 15
01:35:58.753 : en: Chapter 16
01:39:33.968 : en: Chapter 17
01:45:20.105 : en: Chapter 18
01:52:55.227 : en: Chapter 19
01:59:45.011 : en: Chapter 20
Скріншоти



Джерело: &
Українська доріжка - UKR.TO та legos25, українські форсовані субтитри - legos25 та igor911.


Золотий реліз (завантажене не впливає на рейтинг)
 Трекер:    Зареєстрований   

Завантажити / скачати фільм українською



відео для новачків



 Зареєстрований:   2018-03-15 16:58
 Розмір:   32.04 GB 
 Оцінка фільму:   10/10 (Голосів: 9)
   
Інші релізи
   Темні часи / Darkest Hour (2017) AVC Ukr(Mic)/Eng | Sub Eng igor911  48 / 8   739 MB   2018-02-15 06:03 
   Темні часи / Darkest Hour (2017) | Mic igor911  203 / 1   1.45 GB   2018-02-15 05:27 
   Темні часи / Darkest Hour (2017) 1080p Ukr(Mic)/Eng | Sub Eng igor911  72 / 4   8.91 GB   2018-02-15 05:07 
   Темні часи / Darkest Hour (2017) 720p Ukr(Mic)/Eng | Sub Eng legos25  95 / 4   4.54 GB   2018-02-15 02:28 
bot 
робот


З нами з: 30.09.07
Востаннє: 26.05.05
Повідомлень: 18691

2018-03-15 16:58  
Тему перенесено з Анонси релізів до форуму Фільми в HD


staf777

igor911 
Відео Гуртом
Відео Гуртом


З нами з: 18.01.08
Востаннє: 20.04.18
Повідомлень: 9811

2018-03-15 17:03  
staf777, додай семпл - зразок озвучення (можна взяти в сусідніх релізах).
zvb 
Новенький


З нами з: 31.05.09
Востаннє: 19.04.18
Повідомлень: 8

2018-03-15 17:50  
дайте нормальної якості!
staf777 
Попереджень: 1
Попереджень: 1 


З нами з: 16.11.16
Востаннє: 19.04.18
Повідомлень: 963

2018-03-15 18:29  
igor911 написано:
staf777, додай семпл - зразок озвучення (можна взяти в сусідніх релізах).

Додав

SVARGA7 
Частий відвідувач


З нами з: 16.11.11
Востаннє: 20.04.18
Повідомлень: 40

2018-03-16 07:52  
Чи буде якісний звук, хто знає?
igor911 
Відео Гуртом
Відео Гуртом


З нами з: 18.01.08
Востаннє: 20.04.18
Повідомлень: 9811

2018-03-16 08:13  
SVARGA7, схоже, що не буде. Принаймі на Мегого відповіли, що не додаватимуть укр.доріжку.
sandman 
Поважний учасник


З нами з: 12.08.12
Востаннє: 19.04.18
Повідомлень: 195

2018-03-17 12:27  
семпл не доступний для жодного з релізів. Можна перезалити, будь ласка?
igor911 
Відео Гуртом
Відео Гуртом


З нами з: 18.01.08
Востаннє: 20.04.18
Повідомлень: 9811

2018-03-17 14:15  
sandman написано:
семпл не доступний для жодного з релізів

перевірив тут - доступний, завантажується.

vash1 
Свій


З нами з: 16.03.16
Востаннє: 16.04.18
Повідомлень: 98

2018-03-29 10:47  
і субтитрів українських повних теж нема?
igor911 
Відео Гуртом
Відео Гуртом


З нами з: 18.01.08
Востаннє: 20.04.18
Повідомлень: 9811

2018-03-29 10:49  
немає.
Ваш часовий пояс: GMT + 2 Години

Нова тема   Відповісти