Перкалаба - !Чидро (2009) [] | Folk-Rock / Ska

Нові коментарі

Нова тема   Відповісти
Автор Повідомлення
kolpavel 
VIP


З нами з: 04.05.14
Востаннє: 20.06.18
Повідомлень: 1216

2018-03-13 20:19  
Перкалаба - !Чидро (2009) [] | Folk-Rock / Ska

Перкалаба - !Чидро (2009) [] | Folk-Rock / Ska


Стиль: Folk-Rock Ska
Країна, місто: Україна, Івано-Франківськ
Сайти: Офіційний сайт
Видавець: Taras Bulba Entertainment
Виконавці:
Андрій "Федот" Федотов - вокал
Ярема Стецик - тарелі, бек-вокал
Ігор "Моряк" Шугот - бас-гітара
Володимир "Вовєнджя" Шотурма - цимбали
Серьога Шваюк - труба
Віктор Степанюк - тромбон
Ігорко Римик - барабани
Пісні:
    01. Автобус - 5:29
    02. Чидроти - 4:53
    03. Миєбітлс - 4:51
    04. Крила - 3:06
    05. Глина - 3:55
    06. ПЗШП - 6:22
    07. Пан - 3:01
    08. Тікобивиходили - 4:32
    09. Пісюни - 4:04
    10. Прерії - 2:43
    11. Waltz - 4:19
    12. Колискова - 8:51

Тривалість: 00:55:36
Мова: українська
Аудіо-кодек:
Бітрейт: 991 - 1086 кб/с
Джерело: трекер
Додаткова інформація:
Поки світова спільнота з хвилюванням чекала на оприлюднення спільного проекту панів Моха та Кузі, гурт Перкалаба зненацька, без жодного оголошення, видав на-гора свій третій альбом. Ну і правильно зробив, що видав – давно вже хотілося почути чогось новенького зі сфер абсурдного фольку, а Перкалаба досі залишається чи не головним українським провідником у тріпах по цих неходжених тропах і трапах. І зараз можна сказати, що гурт таки дотримується напрямку руху, який вже поступово вимальовувався у попередніх роботах. Умовним визначенням напрямку хай буде – "психоделічне ска". Стосовно платівки "!чидро" це означає, що ті шум і шал, до яких всі встигли звикнути раніше – занурюються все більше і більше углиб, перетворюються на потужну приховану енергію. Тепер від цих пісень не так помітно дрижить повітря – зате земля відчутно гуде, наче пригадує, що не завжди була спокійною. Загальне звучання гурту стало якимсь більш відточеним, у ньому з’являється вже чимало запрошень зауважити дрібні, але красиві деталі. Власне, з цих дрібниць і росте собі психоделія. У поєднання ж із, як і завжди, чудернацькими текстами – вона просто непомітно лишає голову без покрівлі. І ото стирчить з голого мозку самотня труба у саме небо... Хіба ж не чудово? (Антон Йожик Лейба, umka.com.ua)
EAC
Exact Audio Copy V1.3 from 2. September 2016

EAC extraction logfile from 15. February 2018, 12:30

Перкалаба / !чидро

Used drive : TEAC CD-W524E Adapter: 1 ID: 2

Read mode : Secure
Utilize accurate stream : Yes
Defeat audio cache : Yes
Make use of C2 pointers : No

Read offset correction : 686
Overread into Lead-In and Lead-Out : No
Fill up missing offset samples with silence : Yes
Delete leading and trailing silent blocks : No
Null samples used in CRC calculations : Yes
Used interface : Native Win32 interface for Win NT & 2000
Gap handling : Appended to previous track

Used output format : User Defined Encoder
Selected bitrate : 896 kBit/s
Quality : High
Add ID3 tag : No
Command line compressor : C:\Program Files\Exact Audio Copy\\.EXE
Additional command line options : -8 -V -T "ARTIST=%artist%" -T "TITLE=%title%" -T "ALBUM=%albumtitle%" -T "DATE=%year%" -T "TRACKNUMBER=%tracknr%" -T "GENRE=%genre%" -T "COMMENT=%comment%" %hascover%--picture="%coverfile%"%hascover% %source% -o %dest%

TOC of the extracted CD

Track | Start | Length | Start sector | End sector
---------------------------------------------------------
1 | 0:00.00 | 5:29.64 | 0 | 24738
2 | 5:29.64 | 4:23.12 | 24739 | 44475
3 | 9:53.01 | 4:51.24 | 44476 | 66324
4 | 14:44.25 | 3:06.54 | 66325 | 80328
5 | 17:51.04 | 3:55.59 | 80329 | 98012
6 | 21:46.63 | 6:22.58 | 98013 | 126720
7 | 28:09.46 | 3:01.36 | 126721 | 140331
8 | 31:11.07 | 4:32.66 | 140332 | 160797
9 | 35:43.73 | 4:04.23 | 160798 | 179120
10 | 39:48.21 | 2:43.46 | 179121 | 191391
11 | 42:31.67 | 4:19.23 | 191392 | 210839
12 | 46:51.15 | 8:51.56 | 210840 | 250720

Track 1

Filename I:\CD_lossless_my\Перкалаба - !чидро (2009)\01. Перкалаба - Автобус.wav

Pre-gap length 0:00:02.00

Peak level 97.7 %
Extraction speed 5.0 X
Track quality 100.0 %
Test CRC A916A14B
Copy CRC A916A14B
Accurately ripped (confidence 1) [CCCB9C03] (AR v2)
Copy OK

Track 2

Filename I:\CD_lossless_my\Перкалаба - !чидро (2009)\02. Перкалаба - Чидроти.wav

Peak level 98.0 %
Extraction speed 5.5 X
Track quality 100.0 %
Test CRC 507663AC
Copy CRC 507663AC
Accurately ripped (confidence 1) [044FF65B] (AR v2)
Copy OK

Track 3

Filename I:\CD_lossless_my\Перкалаба - !чидро (2009)\03. Перкалаба - Миєбітлс.wav

Peak level 97.7 %
Extraction speed 6.1 X
Track quality 100.0 %
Test CRC 751F50D2
Copy CRC 751F50D2
Accurately ripped (confidence 1) [EFB5CE53] (AR v2)
Copy OK

Track 4

Filename I:\CD_lossless_my\Перкалаба - !чидро (2009)\04. Перкалаба - Крила.wav

Peak level 97.7 %
Extraction speed 6.2 X
Track quality 100.0 %
Test CRC EC5DE2F5
Copy CRC EC5DE2F5
Accurately ripped (confidence 1) [7CDBCAB6] (AR v2)
Copy OK

Track 5

Filename I:\CD_lossless_my\Перкалаба - !чидро (2009)\05. Перкалаба - Глина.wav

Peak level 97.7 %
Extraction speed 6.6 X
Track quality 100.0 %
Test CRC B80661AC
Copy CRC B80661AC
Accurately ripped (confidence 1) [6FCFAC76] (AR v2)
Copy OK

Track 6

Filename I:\CD_lossless_my\Перкалаба - !чидро (2009)\06. Перкалаба - ПЗШП.wav

Peak level 97.7 %
Extraction speed 4.6 X
Track quality 99.9 %
Test CRC 48EDBB62
Copy CRC 48EDBB62
Accurately ripped (confidence 1) [2FE2D055] (AR v2)
Copy OK

Track 7

Filename I:\CD_lossless_my\Перкалаба - !чидро (2009)\07. Перкалаба - Пан.wav

Peak level 97.7 %
Extraction speed 7.2 X
Track quality 100.0 %
Test CRC 727E0E6F
Copy CRC 727E0E6F
Accurately ripped (confidence 1) [881FBCCB] (AR v2)
Copy OK

Track 8

Filename I:\CD_lossless_my\Перкалаба - !чидро (2009)\08. Перкалаба - Тікобивиходили.wav

Peak level 97.7 %
Extraction speed 4.0 X
Track quality 99.9 %
Test CRC 63F055B9
Copy CRC 63F055B9
Accurately ripped (confidence 1) [C66C915D] (AR v2)
Copy OK

Track 9

Filename I:\CD_lossless_my\Перкалаба - !чидро (2009)\09. Перкалаба - Пісюни.wav

Peak level 97.7 %
Extraction speed 7.6 X
Track quality 100.0 %
Test CRC B3D6F16E
Copy CRC B3D6F16E
Accurately ripped (confidence 1) [646331C7] (AR v2)
Copy OK

Track 10

Filename I:\CD_lossless_my\Перкалаба - !чидро (2009)\10. Перкалаба - Преріі.wav

Peak level 97.7 %
Extraction speed 7.3 X
Track quality 100.0 %
Test CRC 96456068
Copy CRC 96456068
Accurately ripped (confidence 1) [473E64BE] (AR v2)
Copy OK

Track 11

Filename I:\CD_lossless_my\Перкалаба - !чидро (2009)\11. Перкалаба - Waltz.wav

Peak level 97.7 %
Extraction speed 3.9 X
Track quality 99.9 %
Test CRC AC22F44B
Copy CRC AC22F44B
Accurately ripped (confidence 1) [09F05EE3] (AR v2)
Copy OK

Track 12

Filename I:\CD_lossless_my\Перкалаба - !чидро (2009)\12. Перкалаба - Колискова.wav

Peak level 97.7 %
Extraction speed 8.3 X
Track quality 100.0 %
Test CRC 7A47CDDF
Copy CRC 7A47CDDF
Accurately ripped (confidence 1) [2DA69D1E] (AR v2)
Copy OK

All tracks accurately ripped

No errors occurred

End of status report

---- CUETools DB Plugin V2.1.6

[CTDB TOCID: 9EPn5rQs9Tas304M8RCUCOZ2sY0-] disk not present in database
Submit result: 9EPn5rQs9Tas304M8RCUCOZ2sY0- has been uploaded

==== Log checksum 237448811CCDA0C86CD755452E0338F91EAFC5A6401A338BA21652532A3AEDC0 ====
(.CUE)
REM GENRE Folk
REM DATE 2009
REM DISCID A40D0E0C
REM COMMENT "ExactAudioCopy v1.3"
PERFORMER "Перкалаба"
TITLE "!чидро"
REM COMPOSER ""
FILE "01. Перкалаба - Автобус." WAVE
TRACK 01 AUDIO
TITLE "Автобус"
PERFORMER "Перкалаба"
REM COMPOSER ""
INDEX 01 00:00:00
FILE "02. Перкалаба - Чидроти." WAVE
TRACK 02 AUDIO
TITLE "Чидроти"
PERFORMER "Перкалаба"
REM COMPOSER ""
INDEX 01 00:00:00
FILE "03. Перкалаба - Миєбітлс." WAVE
TRACK 03 AUDIO
TITLE "Миєбітлс"
PERFORMER "Перкалаба"
REM COMPOSER ""
INDEX 01 00:00:00
FILE "04. Перкалаба - Крила." WAVE
TRACK 04 AUDIO
TITLE "Крила"
PERFORMER "Перкалаба"
REM COMPOSER ""
INDEX 01 00:00:00
FILE "05. Перкалаба - Глина." WAVE
TRACK 05 AUDIO
TITLE "Глина"
PERFORMER "Перкалаба"
REM COMPOSER ""
INDEX 01 00:00:00
FILE "06. Перкалаба - ПЗШП." WAVE
TRACK 06 AUDIO
TITLE "ПЗШП"
PERFORMER "Перкалаба"
REM COMPOSER ""
INDEX 01 00:00:00
FILE "07. Перкалаба - Пан." WAVE
TRACK 07 AUDIO
TITLE "Пан"
PERFORMER "Перкалаба"
REM COMPOSER ""
INDEX 01 00:00:00
FILE "08. Перкалаба - Тікобивиходили." WAVE
TRACK 08 AUDIO
TITLE "Тікобивиходили"
PERFORMER "Перкалаба"
REM COMPOSER ""
INDEX 01 00:00:00
FILE "09. Перкалаба - Пісюни." WAVE
TRACK 09 AUDIO
TITLE "Пісюни"
PERFORMER "Перкалаба"
REM COMPOSER ""
INDEX 01 00:00:00
FILE "10. Перкалаба - Преріі." WAVE
TRACK 10 AUDIO
TITLE "Преріі"
PERFORMER "Перкалаба"
REM COMPOSER ""
INDEX 01 00:00:00
FILE "11. Перкалаба - Waltz." WAVE
TRACK 11 AUDIO
TITLE "Waltz"
PERFORMER "Перкалаба"
REM COMPOSER ""
INDEX 01 00:00:00
FILE "12. Перкалаба - Колискова." WAVE
TRACK 12 AUDIO
TITLE "Колискова"
PERFORMER "Перкалаба"
REM COMPOSER ""
INDEX 01 00:00:00


Якщо Ви справді бажаєте підтримати українське - після прослуховування, якщо музика вам сподобалась, придбайте ліцензійний диск. Підтримаймо вітчизняних виконавців!


Срібний реліз (на рейтинг впливає 50% завантаженого)
 Трекер:    Зареєстрований   

Завантажити / скачати українську музику



відео для новачків



 Зареєстрований:   2018-03-13 20:19
 Розмір:   424 MB 
 Оцінка музики:   10/10 (Голосів: 3)
   
Ваш часовий пояс: GMT + 2 Години

Нова тема   Відповісти