Джуманджі: Поклик джунглів / Jumanji: Welcome to the Jungle (2017) Remux 1080p Ukr/Eng | Sub Ukr/Eng

Нові коментарі

Нова тема   Відповісти
Автор Повідомлення
staf777 
Попереджень: 1
Попереджень: 1 


З нами з: 16.11.16
Востаннє: 22.10.18
Повідомлень: 1649

2018-03-13 11:52  
Джуманджі: Поклик джунглів / Jumanji: Welcome to the Jungle (2017) Remux 1080p Ukr/Eng | Sub Ukr/Eng

Джуманджі: Поклик джунглів / Jumanji: Welcome to the Jungle (2017) Remux 1080p Ukr/Eng | Sub Ukr/Eng


Жанр: бойовик, комедія, пригоди, сімейний, фентезі
Країна: США



Кінокомпанія: Matt Tolmach Productions, Radar Pictures, Seven Bucks Productions
Режисер: Джейк Кездан / Jake Kasdan
Актори: Двейн Джонсон / Dwayne Johnson, Кевін Гарт / Kevin Hart, Джек Блек / Jack Black, Карен Гіллан / Karen Gillan, Різ Дербі / Rhys Darby, Боббі Каннавале / Bobby Cannavale, Нік Джонас / Nick Jonas, Алекс Вулф / Alex Wolff, Сер’Даріус Блейн / Ser'Darius Blain, Медісон Ісман / Madison Iseman та інші

Сюжет:
Четверо старшокласників потрапляють в небезпечний світ гри «Джуманджі» у вигляді протилежних собі аватарів, яким доведеться битися з дикими тваринами і проходити різні випробування, щоб вижити й повернутися додому.


Тривалість: 01:59:01
Якість: Remux 1080p
Відео:
кодек:
розмір кадру: 1920x1080
бітрейт: 24,9 Мб/с

Аудіо # 1:
мова: українська
переклад: професійний дубльований [iTunes]
кодек: 2.0
бітрейт: 224 кб/с

Аудіо # 2:
мова: англійська
переклад: оригінал
кодек: -HD MA 5.1
бітрейт: 2249 кб/с

Субтитри # 1-2: (форсовані, повні)
мова: українська
тип: програмні (м'які)
формат: *.srt

Субтитри # 3:
мова: англійська
тип: програмні (м'які)
формат: *.srt
Info
General
Unique ID : 198617587042308097212988551517109114249 (0x956C5B181CB4B43F9EDCC09C80E65589)
Complete name : H:\» HD українською » Фільми в HD\Пригодницький\ Jumanji Welcome to the Jungle (2017) Remux 1080p [Ukr][Eng][Sub Ukr,Eng][Hurtom].
Format :
Format version : Version 4 / Version 2
File size : 22.8 GiB
Duration : 1 h 59 min
Overall bit rate mode : Variable
Overall bit rate : 27.4 Mb/s
Movie name : Jumanji: Welcome to the Jungle (2017) Remux 1080p [Ukr][Eng][Sub Ukr,Eng][Hurtom]
Encoded date : UTC 2018-03-13 10:26:28
Writing application : v9.8.0 ('Kuglblids') 64bit
Writing library : libebml v1.3.4 + v1.4.5

Video
ID : 1
Format : AVC
Format/Info : Advanced Video Codec
Format profile : [email protected]
Format settings, CABAC : Yes
Format settings, ReFrames : 2 frames
Format settings, GOP : M=1, N=10
Codec ID : V_MPEG4/ISO/AVC
Duration : 1 h 59 min
Bit rate mode : Variable
Bit rate : 24.9 Mb/s
Width : 1 920 pixels
Height : 1 080 pixels
Display aspect ratio : 16:9
Frame rate mode : Constant
Frame rate : 23.976 (24000/1001) FPS
Color space : YUV
Chroma subsampling : 4:2:0
Bit depth : 8 bits
Scan type : Progressive
Bits/(Pixel*Frame) : 0.500
Stream size : 20.7 GiB (91%)
Language : English
Default : Yes
Forced : No

Audio #1
ID : 2
Format : AC-3
Format/Info : Audio Coding 3
Mode extension : CM (complete main)
Format settings, Endianness : Big
Codec ID : A_AC3
Duration : 1 h 59 min
Bit rate mode : Constant
Bit rate : 224 kb/s
Channel(s) : 2 channels
Channel positions : Front: L R
Sampling rate : 48.0 kHz
Frame rate : 31.250 FPS (1536 spf)
Bit depth : 16 bits
Compression mode : Lossy
Stream size : 191 MiB (1%)
Title : iTunes
Language : Ukrainian
Default : Yes
Forced : Yes

Audio #2
ID : 3
Format :
Format/Info : Digital Theater Systems
Format profile : MA / Core
Mode : 16
Format settings, Endianness : Big
Codec ID : A_DTS
Duration : 1 h 59 min
Bit rate mode : Variable / Constant
Bit rate : 2 249 kb/s / 1 509 kb/s
Channel(s) : 6 channels
Channel positions : Front: L C R, Side: L R, LFE
Sampling rate : 48.0 kHz
Frame rate : 93.750 FPS (512 spf)
Bit depth : 16 bits
Compression mode : Lossless / Lossy
Stream size : 1.87 GiB (8%)
Title : Original
Language : English
Default : No
Forced : No

Text #1
ID : 4
Format : UTF-8
Codec ID : S_TEXT/UTF8
Codec ID/Info : UTF-8 Plain Text
Duration : 1 h 27 min
Bit rate : 0 b/s
Count of elements : 15
Stream size : 471 Bytes (0%)
Language : Ukrainian
Default : Yes
Forced : Yes

Text #2
ID : 5
Format : UTF-8
Codec ID : S_TEXT/UTF8
Codec ID/Info : UTF-8 Plain Text
Duration : 1 h 57 min
Bit rate : 76 b/s
Count of elements : 1562
Stream size : 66.4 KiB (0%)
Title : iTunes
Language : Ukrainian
Default : No
Forced : No

Text #3
ID : 6
Format : UTF-8
Codec ID : S_TEXT/UTF8
Codec ID/Info : UTF-8 Plain Text
Duration : 1 h 48 min
Bit rate : 63 b/s
Count of elements : 1539
Stream size : 50.9 KiB (0%)
Title : full
Language : English
Default : No
Forced : No

Menu
00:00:00.000 : en:00:00:00.000
00:07:18.104 : en:00:07:18.104
00:17:15.993 : en:00:17:15.993
00:23:23.235 : en:00:23:23.235
00:29:24.972 : en:00:29:24.972
00:42:28.546 : en:00:42:28.546
00:47:11.162 : en:00:47:11.162
00:54:26.722 : en:00:54:26.722
01:03:20.839 : en:01:03:20.839
01:10:21.801 : en:01:10:21.801
01:15:51.672 : en:01:15:51.672
01:24:10.087 : en:01:24:10.087
01:28:20.295 : en:01:28:20.295
01:33:48.414 : en:01:33:48.414
01:42:22.887 : en:01:42:22.887
01:48:31.839 : en:01:48:31.839
Скріншоти



Компіляція українських форсованих субтитрів - igor911.
Джерело: &
Особиста оцінка: 0 - не дивився


Золотий реліз (завантажене не впливає на рейтинг)
 Трекер:    Зареєстрований   

Завантажити / скачати фільм українською



відео для новачків



 Зареєстрований:   2018-03-13 14:45
 Розмір:   22.75 GB 
 Оцінка фільму:   8/10 (Голосів: 25)
   
bot 
робот


З нами з: 30.09.07
Востаннє: 26.05.05
Повідомлень: 19985

2018-03-13 13:17  
Тему перенесено з Анонси релізів до форуму Фільми в HD


staf777

igor911 
Відео Гуртом
Відео Гуртом


З нами з: 18.01.08
Востаннє: 22.10.18
Повідомлень: 11268

2018-03-13 13:21  
додай укр.форсовані субтитри, будь ласка, скинув в приват.
staf777 
Попереджень: 1
Попереджень: 1 


З нами з: 16.11.16
Востаннє: 22.10.18
Повідомлень: 1649

2018-03-13 14:49  
igor911
Дякую - додав

Jani307 
Свій


З нами з: 09.06.14
Востаннє: 22.10.18
Повідомлень: 94

2018-03-13 22:56  
А що оцінка така низька? Не такий вже поганий фільм.
ngxwinger 
Частий відвідувач


З нами з: 19.01.14
Востаннє: 21.10.18
Повідомлень: 25

2018-03-14 15:21  
Вчора вже через силу додивлялися це кіно, поставив 5 за 10.
Boba_yacek 
Новенький


З нами з: 17.10.09
Востаннє: 22.10.18
Повідомлень: 4

2018-03-18 14:08  
А в 4 К буде?
Maters 
VIP


З нами з: 27.03.12
Востаннє: 22.10.18
Повідомлень: 1540

2018-03-24 13:30  
Jani307
це ще надто висока оцінка для такого "фільму" ((
я б поставив 3/10

fsy777 
Частий відвідувач


З нами з: 16.01.12
Востаннє: 22.10.18
Повідомлень: 37

2018-03-28 10:21  
Народ, ну чого ви? Wide grin
Звичайно сюжет примітивний, але фільм сам зовсім не поганий. Гарні зйомки і спецефекти. Для дітей середнього шкільного віку і для сімейного перегляду просто супер. Звичайно рейтинг 7,1 дещо завищений, але аж ніяк не 3 з 10.

nickosat 
Новенький


З нами з: 23.11.14
Востаннє: 20.10.18
Повідомлень: 10

2018-04-23 20:17  
3д буде?
Uberwinder 
VIP


З нами з: 18.11.16
Востаннє: 22.10.18
Повідомлень: 267

2018-04-23 20:20  
Як на мене, то досить посередній, але повним шлаком не назвав би.
Ваш часовий пояс: GMT + 2 Години

Нова тема   Відповісти