Найкращий екзотичний готель "Меріголд" / Готель Меріголд: Кращий з екзотичних / The Best Exotic Marigold Hotel (2011) 720p Ukr/Eng | Sub Ukr/Eng

Нові коментарі

Нова тема   Відповісти
Автор Повідомлення
Anonymous 







2018-03-13 03:14  
Найкращий екзотичний готель "Меріголд" / Готель Меріголд: Кращий з екзотичних / The Best Exotic Marigold Hotel (2011) 720p Ukr/Eng | Sub Ukr/Eng

Найкращий екзотичний готель "Меріголд" / Готель Меріголд: Кращий з екзотичних / The Best Exotic Marigold Hotel (2011) 720p Ukr/Eng | Sub Ukr/Eng


Жанр: драма, комедія
Країна: Велика Британія, США, ОАЕ



Кінокомпанія: Blueprint Pictures, Imagenation Abu Dhabi FZ, Participant Media
Режисер: Джон Медден / John Madden
Актори: Джуді Денч / Judi Dench, Том Вілкінсон / Tom Wilkinson, Білл Найї / Bill Nighy, Меггі Сміт / Maggie Smith, Дев Патель / Dev Patel, Пенелопа Вілтон / Penelope Wilton, Тіна Десаї / Tina Desai, Селія Імрі / Celia Imrie, Рональд Пікап / Ronald Pickup, Діана Хардкесл / Diana Hardcastle та інші

Сюжет:
Фільм розповідає про групу британських пенсіонерів, які вирішили «піти на спочинок» у менш витратну та більш екзотичну Індію. Спокусившись рекламою про заново відновлений готель "Меріголд" і в передчутті життя повного задоволень, вони прибувають на місце, тільки щоб виявити, що готель, насправді, являє собою лише бліду тінь своєї колишньої величі. Але, незважаючи на те, що навколишнє оточення далеке від тієї розкоші, яку вони собі уявляли, спільні пригоди безповоротно змінюють кожного з них, і вони усвідомлюють, що можна почати жити заново і знайти любов, якщо відпустити минуле ...


Рейтинг MPAA: PG-13 - дітям до 13 років перегляд не бажаний
Вікова категорія: 12+
Тривалість: 02:03:45
Якість: 720p [ріп від HDChina]
Відео:
кодек:
розмір кадру: 1280x544
бітрейт: 6500 кб/с

Аудіо # 1:
мова: українська
переклад: багатоголосий закадровий
кодек: 2.0
бітрейт: 192 кб/с

Аудіо # 2:
мова: англійська
переклад: оригінал
кодек: 5.1
бітрейт: 640 кб/с

Субтитри # 1:
мова: українська
тип: програмні (м'які)
формат: *.srt
переклад: Віктор Паюк (Vіktоr Рауuk)

Субтитри # 2-3:
мова: англійська (повні, SDH)
тип: програмні (м'які)
формат: *.srt

Збережено оригінальні розділи, як на Blu-ray
Info
Код:
Complete name               : The Best Exotic Marigold Hotel (2011) [Ukr,Eng sub.Ukr,Eng] 720p [Hurtom].
Format                      :
Format version              : Version 4 / Version 2
File size                   : 6.34 GiB
Duration                    : 2 h 3 min
Overall bit rate            : 7 330 kb/s
Movie name                  : Найкращий екзотичний готель "Меріголд" / The Best Exotic Marigold Hotel (2011) [Ukr,Eng sub.Ukr,Eng] 720p [Hurtom]
Encoded date                : UTC 2018-03-13 00:41:32
Writing application         : v21.0.0 ('Tardigrades Will Inherit The Earth') 64-bit
Writing library             : libebml v1.3.5 + v1.4.8
Cover                       : Yes
Attachments                 : cover.jpg

Video
ID                          : 1
Format                      : AVC
Format/Info                 : Advanced Video Codec
Format profile              : [email protected]
Format settings             : CABAC / 12 Ref Frames
Format settings, CABAC      : Yes
Format settings, ReFrames   : 12 frames
Codec ID                    : V_MPEG4/ISO/AVC
Duration                    : 2 h 3 min
Bit rate                    : 6 500 kb/s
Width                       : 1 280 pixels
Height                      : 544 pixels
Display aspect ratio        : 2.35:1
Frame rate mode             : Constant
Frame rate                  : 23.976 (24000/1001) FPS
Color space                 : YUV
Chroma subsampling          : 4:2:0
Bit depth                   : 8 bits
Scan type                   : Progressive
Bits/(Pixel*Frame)          : 0.389
Stream size                 : 5.61 GiB (89%)
Title                       : Найкращий екзотичний готель «Меріголд» / Готель «Меріголд»: Кращий з екзотичних / The Best Exotic Marigold Hotel (2011) 720p [HDChina]
Writing library             : core 125 r2200 999b753
Encoding settings           : cabac=1 / ref=12 / deblock=1:-3:-3 / analyse=0x3:0x113 / me=umh / subme=10 / psy=1 / psy_rd=1.10:0.00 / mixed_ref=1 / me_range=32 / chroma_me=1 / trellis=2 / 8x8dct=1 / cqm=0 / deadzone=21,11 / fast_pskip=0 / chroma_qp_offset=-2 / threads=18 / lookahead_threads=3 / sliced_threads=0 / nr=0 / decimate=0 / interlaced=0 / bluray_compat=0 / constrained_intra=0 / bframes=8 / b_pyramid=2 / b_adapt=2 / b_bias=0 / direct=3 / weightb=1 / open_gop=0 / weightp=2 / keyint=240 / keyint_min=24 / scenecut=40 / intra_refresh=0 / rc_lookahead=240 / rc=2pass / mbtree=1 / bitrate=6500 / ratetol=1.0 / qcomp=0.70 / qpmin=0 / qpmax=69 / qpstep=4 / cplxblur=20.0 / qblur=0.5 / ip_ratio=1.40 / aq=1:1.00
Language                    : English
Default                     : Yes
Forced                      : No

Audio #1
ID                          : 2
Format                      : AC-3
Format/Info                 : Audio Coding 3
Codec ID                    : A_AC3
Duration                    : 2 h 3 min
Bit rate mode               : Constant
Bit rate                    : 192 kb/s
Channel(s)                  : 2 channels
Channel positions           : Front: L R
Sampling rate               : 48.0 kHz
Frame rate                  : 31.250 FPS (1536 SPF)
Bit depth                   : 16 bits
Compression mode            : Lossy
Stream size                 : 170 MiB (3%)
Title                       : MVO [1+1] 2.0 192 Kbps
Language                    : Ukrainian
Service kind                : Complete Main
Default                     : Yes
Forced                      : Yes

Audio #2
ID                          : 3
Format                      : AC-3
Format/Info                 : Audio Coding 3
Codec ID                    : A_AC3
Duration                    : 2 h 3 min
Bit rate mode               : Constant
Bit rate                    : 640 kb/s
Channel(s)                  : 6 channels
Channel positions           : Front: L C R, Side: L R, LFE
Sampling rate               : 48.0 kHz
Frame rate                  : 31.250 FPS (1536 SPF)
Bit depth                   : 16 bits
Compression mode            : Lossy
Stream size                 : 567 MiB (9%)
Title                       : Original, 5.1 640 Kbps
Language                    : English
Service kind                : Complete Main
Default                     : No
Forced                      : No

Text #1
ID                          : 4
Format                      : UTF-8
Codec ID                    : S_TEXT/UTF8
Codec ID/Info               : UTF-8 Plain Text
Duration                    : 2 h 3 min
Bit rate                    : 107 b/s
Count of elements           : 1612
Stream size                 : 97.2 KiB (0%)
Title                       : Ukr full [Blu-ray EUR]
Language                    : Ukrainian
Default                     : No
Forced                      : No

Text #2
ID                          : 5
Format                      : UTF-8
Codec ID                    : S_TEXT/UTF8
Codec ID/Info               : UTF-8 Plain Text
Duration                    : 1 h 56 min
Bit rate                    : 71 b/s
Count of elements           : 1589
Stream size                 : 60.6 KiB (0%)
Title                       : Eng full
Language                    : English
Default                     : No
Forced                      : No

Text #3
ID                          : 6
Format                      : UTF-8
Codec ID                    : S_TEXT/UTF8
Codec ID/Info               : UTF-8 Plain Text
Duration                    : 2 h 3 min
Bit rate                    : 69 b/s
Count of elements           : 1742
Stream size                 : 62.3 KiB (0%)
Title                       : Eng SDH
Language                    : English
Default                     : No
Forced                      : No

Menu
00:00:00.000                : en:00:00:00.000
00:07:29.616                : en:00:07:29.616
00:11:43.369                : en:00:11:43.369
00:21:02.136                : en:00:21:02.136
00:27:33.861                : en:00:27:33.861
00:34:23.561                : en:00:34:23.561
00:40:06.946                : en:00:40:06.946
00:43:47.166                : en:00:43:47.166
00:47:42.651                : en:00:47:42.651
00:50:45.334                : en:00:50:45.334
00:54:12.583                : en:00:54:12.583
00:57:08.842                : en:00:57:08.842
01:00:23.954                : en:01:00:23.954
01:03:26.052                : en:01:03:26.052
01:06:52.550                : en:01:06:52.550
01:10:29.058                : en:01:10:29.058
01:15:00.621                : en:01:15:00.621
01:18:49.808                : en:01:18:49.808
01:22:09.716                : en:01:22:09.716
01:28:06.615                : en:01:28:06.615
01:31:40.704                : en:01:31:40.704
01:34:19.028                : en:01:34:19.028
01:39:22.039                : en:01:39:22.039
01:41:38.467                : en:01:41:38.467
01:47:31.487                : en:01:47:31.487
01:50:21.698                : en:01:50:21.698
01:53:50.282                : en:01:53:50.282
01:57:16.738                : en:01:57:16.738


Джерело: &
Український звук: Electroz, xSlim, Bohdan237, drop_plz
Редагування українських субтитрів з блурея - igor911


 Трекер:    Зареєстрований   

Завантажити / скачати фільм українською



відео для новачків



 Зареєстрований:   2018-03-13 03:14
 Розмір:   6.34 GB 
 Оцінка фільму:   9.8/10 (Голосів: 9)
   
mutomba 
VIP


З нами з: 20.10.13
Востаннє: 15.01.21
Повідомлень: 367

2018-03-13 13:56  
Гарне кіно, для відпочинку. Happy
bisivka 
Новенький


З нами з: 08.03.17
Востаннє: 31.12.20
Повідомлень: 22

2018-03-16 13:23  
Легкий і іронічний фільм. Сподобався.
durmitor 
Новенький


З нами з: 17.01.16
Востаннє: 24.10.20
Повідомлень: 6

2019-01-13 15:45  
Шикарний фільм
Ваш часовий пояс: GMT + 2 Години

Нова тема   Відповісти