Я бачу (2015) 1080р

Нові коментарі

Нова тема   Відповісти
Автор Повідомлення
Леля22 
Забанено
Забанено


З нами з: 22.07.15
Востаннє: 07.08.18
Повідомлень: 1032

2018-03-11 21:22  
Я бачу (2015) 1080р

Я бачу (2015) 1080р


Жанр: документальний, соціальний
Країна: Україна


Кіностудія: Продакшн-студія OFF Laboratory
Режисер: Ольга Фразе-Фразенко
У фільмі знімалися: Богдан Мойса, Вікторія Лучка, Світлана Ліра, Марта Дропа, Аркадій Казік, Роман Коритко, Артем Кучеренко, Віталій Ус, Роман Мацків, Іван Стрельцов, Євген Чаговський, Юлія Сачук, Світлана Кучернюк та інші.

Сюжет:
Стрічка «Я бачу» розкриває історії та відчуття незрячих людей, які відважились на 33-денну подорож Україною на велосипедах-тандемах. Стрічку озвучено тифлокоментарем, що уможливить її перегляд для людей з порушеннями зору.
Фільм був відзнятий під час Всеукраїнського велопробігу «Бачу! Можу! Допоможу!» улітку 2015 року. За 33 дні учасники подолали понад 3000 км та проїхали 10 областей України.

Ольга Фразе-Фразенко: «Я бачу» – це фільм про подорож Україною, де мандрівники бачать її в свій особливий спосіб: через відчуття швидкості, простору, через запахи, дотики, переживання дружби та втоми. Це фільм – про силу: силу перемагати та залишатися чуйними, коли людина не тільки долає труднощі, але й не втрачає вміння радіти життю».

Офіційний саундтрек: Піккардійська Терція «Сядеш на ровер».

Тривалість: 00:46:55
Якість:
Відео:
кодек:
розмір кадру: 1920 х 810
бітрейт: 2410 кб/с

Аудіо:
мова: українська, трохи московської (6,5%)
переклад: оригінал
кодек: 2.0
бітрейт: 126 кб/с

Субтитри 1:
мова: українська (на московську мову; переклад Леля22)
тип: програмні (м'які)
формат: *.srt

Субтитри 2:
мова: англійська
тип: програмні (м'які)
формат: *.srt
Скріншоти










Info
General
Format : MPEG-4
Format profile : Base Media
Codec ID : isom (isom/iso2/avc1/mp41)
File size : 852 MiB
Duration : 46 min 54 s
Overall bit rate : 2 539 kb/s
Writing application : Lavf57.2.100

Video
ID : 1
Format : AVC
Format/Info : Advanced Video Codec
Format profile : [email protected]
Format settings : CABAC / 2 Ref Frames
Format settings, CABAC : Yes
Format settings, RefFrames : 2 frames
Codec ID : avc1
Codec ID/Info : Advanced Video Coding
Duration : 46 min 54 s
Bit rate : 2 410 kb/s
Width : 1 920 pixels
Height : 810 pixels
Display aspect ratio : 2.40:1
Frame rate mode : Constant
Frame rate : 14.985 (15000/1001) FPS
Color space : YUV
Chroma subsampling : 4:2:0
Bit depth : 8 bits
Scan type : Progressive
Bits/(Pixel*Frame) : 0.103
Stream size : 808 MiB (95%)
Color range : Limited
Color primaries : BT.709
Transfer characteristics : BT.709
Matrix coefficients : BT.709

Audio
ID : 2
Format :
Format/Info : Advanced Audio Codec
Format profile : LC
Codec ID : mp4a-40-2
Duration : 46 min 54 s
Bit rate mode : Constant
Bit rate : 126 kb/s
Channel(s) : 2 channels
Channel positions : Front: L R
Sampling rate : 44.1 kHz
Frame rate : 43.066 FPS (1024 SPF)
Compression mode : Lossy
Stream size : 42.1 MiB (5%)
Default : Yes
Alternate group : 1
Джерело: https://www.youtube.com/channel/UCGw8s7T-aDCxvpJOgQofBrg


Золотий реліз (завантажене не впливає на рейтинг)
 Трекер:    Зареєстрований   

Завантажити / скачати фільм українською



відео для новачків



 Зареєстрований:   2018-03-11 21:22
 Розмір:   852 MB 
 Оцінка фільму:   10/10 (Голосів: 2)
   
Леля22 
Забанено
Забанено


З нами з: 22.07.15
Востаннє: 07.08.18
Повідомлень: 1032

2018-03-11 21:24  

Ваш часовий пояс: GMT + 2 Години

Нова тема   Відповісти