Потворна кралечка (2018) AVC

Нові коментарі

Нова тема   Відповісти
Автор Повідомлення
Anonymous 







2018-03-11 10:52  
Потворна кралечка (2018) AVC

Потворна кралечка (2018) AVC


Жанр: комедія, короткометражний
Країна: Україна

Кінокомпанія: Sane Brain Productions
Режисер, сценарист, продюсер: Роман Перфільєв
Актори: Ірина Антоненко, Денис Яров, Катерина Артеменко, Владислав Лисак, Леонід Чесноков

Сюжет:
Дівчина з гарячим тілом, але потворним обличчям, знаходячись на сліпому побаченні намагається приховати свій писок у різні способи, щоб не злякати кавалера...


Вікова категорія: 12+

Переглянути онлайн:


Тривалість: 00:15:04
Якість: AVC [Hurtom]
Відео:
кодек:
розмір кадру: 1024 х 428
бітрейт: 1954 кб/с

Аудіо:
мова: українська
переклад: оригінал
кодек: 2.0
бітрейт: 126 кб/с
Info та log
Код:
Complete name               : Potvorna kralechka (2018) AVC [Hurtom].
Format                      :
Format version              : Version 4 / Version 2
File size                   : 225 MiB
Duration                    : 15 min 4 s
Overall bit rate            : 2 084 kb/s
Movie name                  : Потворна кралечка (2018) AVC [Hurtom]
Encoded date                : UTC 2018-03-10 21:19:37
Writing application         : v21.0.0 ('Tardigrades Will Inherit The Earth') 64-bit
Writing library             : libebml v1.3.5 + v1.4.8
Cover                       : Yes
Attachments                 : cover.jpg

Video
ID                          : 1
Format                      : AVC
Format/Info                 : Advanced Video Codec
Format profile              : [email protected]
Format settings             : CABAC / 12 Ref Frames
Format settings, CABAC      : Yes
Format settings, ReFrames   : 12 frames
Codec ID                    : V_MPEG4/ISO/AVC
Duration                    : 15 min 4 s
Bit rate                    : 1 954 kb/s
Width                       : 1 024 pixels
Height                      : 428 pixels
Display aspect ratio        : 2.40:1
Frame rate mode             : Constant
Frame rate                  : 24.000 FPS
Color space                 : YUV
Chroma subsampling          : 4:2:0
Bit depth                   : 8 bits
Scan type                   : Progressive
Bits/(Pixel*Frame)          : 0.186
Stream size                 : 211 MiB (94%)
Title                       : Потворна кралечка (2018) AVC [Hurtom]
Writing library             : core 155 r2901 7d0ff22
Encoding settings           : cabac=1 / ref=12 / deblock=1:-1:-1 / analyse=0x3:0x133 / me=umh / subme=11 / psy=1 / psy_rd=1.00:0.15 / mixed_ref=1 / me_range=32 / chroma_me=1 / trellis=2 / 8x8dct=1 / cqm=0 / deadzone=21,11 / fast_pskip=0 / chroma_qp_offset=-3 / threads=12 / lookahead_threads=2 / sliced_threads=0 / nr=0 / decimate=1 / interlaced=0 / bluray_compat=0 / constrained_intra=0 / bframes=8 / b_pyramid=2 / b_adapt=2 / b_bias=0 / direct=3 / weightb=1 / open_gop=0 / weightp=2 / keyint=240 / keyint_min=24 / scenecut=40 / intra_refresh=0 / rc_lookahead=60 / rc=crf / mbtree=0 / crf=18.0 / qcomp=0.60 / qpmin=0 / qpmax=69 / qpstep=4 / vbv_maxrate=3500 / vbv_bufsize=4375 / crf_max=0.0 / nal_hrd=none / filler=0 / ip_ratio=1.40 / pb_ratio=1.30 / aq=1:1.00
Language                    : Ukrainian
Default                     : Yes
Forced                      : No

Audio
ID                          : 2
Format                      :
Format/Info                 : Advanced Audio Codec
Format profile              : LC
Codec ID                    : A_AAC-2
Duration                    : 15 min 4 s
Bit rate                    : 126 kb/s
Channel(s)                  : 2 channels
Channel positions           : Front: L R
Sampling rate               : 44.1 kHz
Frame rate                  : 43.066 FPS (1024 SPF)
Compression mode            : Lossy
Stream size                 : 13.5 MiB (6%)
Language                    : Ukrainian
Default                     : Yes
Forced                      : No

Код:
raw  [info]: 1024x428p 1:1 @ 24/1 fps (cfr)
[info]: using SAR=1/1
[info]: using cpu capabilities: MMX2 SSE2Fast SSSE3 SSE4.2 AVX
[info]: profile High, level 4.1
[info]: frame I:225   Avg QP:16.73  size: 62838
[info]: frame P:4931  Avg QP:18.49  size: 19827
[info]: frame B:16545 Avg QP:21.41  size:  6588
[info]: consecutive B-frames:  2.4%  1.8%  8.1% 30.2% 24.4% 26.9%  3.8%  0.9%  1.5%
[info]: mb I  I16..4:  7.2% 60.4% 32.4%
[info]: mb P  I16..4:  1.5% 13.6%  3.5%  P16..4: 29.3% 30.0% 13.0%  2.7%  0.4%    skip: 6.1%
[info]: mb B  I16..4:  0.4%  2.6%  0.5%  B16..8: 34.4% 19.1%  3.5%  direct: 4.6%  skip:34.9%  L0:41.7% L1:41.8% BI:16.5%
[info]: 8x8 transform intra:71.3% inter:53.2%
[info]: direct mvs  spatial:100.0% temporal:0.0%
[info]: coded y,uvDC,uvAC intra: 79.3% 84.4% 56.4% inter: 16.8% 18.3% 4.5%
[info]: i16 v,h,dc,p: 27% 15% 11% 47%
[info]: i8 v,h,dc,ddl,ddr,vr,hd,vl,hu: 14% 18% 12%  6%  7%  9%  9% 11% 13%
[info]: i4 v,h,dc,ddl,ddr,vr,hd,vl,hu: 16% 22% 11%  6% 10% 10%  9%  7%  9%
[info]: i8c dc,h,v,p: 32% 33% 20% 15%
[info]: Weighted P-Frames: Y:1.0% UV:0.7%
[info]: ref P L0: 54.4% 13.2% 14.4%  5.0%  3.4%  2.6%  2.1%  1.2%  1.1%  0.9%  0.9%  0.9%  0.0%  0.0%
[info]: ref B L0: 84.6%  8.3%  3.2%  1.3%  0.8%  0.6%  0.4%  0.3%  0.2%  0.2%  0.1%
[info]: ref B L1: 95.2%  4.8%
[info]: kb/s:1954.42
encoded 21701 frames, 8.38 fps, 1954.42 kb/s
Final statistics
Constant Quality Mode: Quality 18 computed...
Video Bitrate Obtained (approximate): 1954 kbit/s


Джерело:


Золотий реліз (завантажене не впливає на рейтинг)
 Трекер:    Зареєстрований   

Завантажити / скачати український фільм



відео для новачків



 Зареєстрований:   2018-03-11 10:52
 Розмір:   225 MB 
 Оцінка фільму:   8.2/10 (Голосів: 76)
   
zvb 
Новенький


З нами з: 31.05.09
Востаннє: 08.03.21
Повідомлень: 22

2018-03-11 12:52  
репліки акторів варто було спочатку переробити від українських дублювальників!
Xshot 
VIP


З нами з: 22.09.09
Востаннє: 13.12.20
Повідомлень: 1650

2018-03-11 18:33  
Ого) Оце прикольне муві) Навіть не очікував від укр.кінопрому) Повеселили цим коротеньким сюжетом))
26_gmv 
Частий відвідувач


З нами з: 20.01.13
Востаннє: 15.02.21
Повідомлень: 27

2018-03-17 12:02  
Позитивненько!!!))))
kolyan2005 
Новенький


З нами з: 08.10.09
Востаннє: 07.03.21
Повідомлень: 9

2018-03-24 19:36  
Що небудь!
endund 
Новенький


З нами з: 19.07.12
Востаннє: 23.02.21
Повідомлень: 2

2018-04-12 23:33  
Нічого таке 12+ )))
[email protected] 
Новенький


З нами з: 29.03.15
Востаннє: 26.12.19
Повідомлень: 3

2018-04-13 00:47  
Шо попало ...
Alex_Shumway 
Частий відвідувач


З нами з: 10.07.16
Востаннє: 08.03.21
Повідомлень: 33

2018-04-29 00:27  
схоже на чиюсь дипломну роботу) і як для дипломки - непогано Happy
Sovereign27 
Новенький


З нами з: 23.01.16
Востаннє: 08.03.21
Повідомлень: 1

2018-06-02 17:52  
Цитата:
схоже на чиюсь дипломну роботу) і як для дипломки - непогано


та навіть для диплому слабувато

pi-men 
Частий відвідувач


З нами з: 05.07.12
Востаннє: 27.02.21
Повідомлень: 49

2018-06-07 19:09  
"Подарунок-поцілунок" - взяв на цитату Happy Гарний легкий фільм
ibsd 
Свій


З нами з: 06.09.10
Востаннє: 08.03.21
Повідомлень: 117

2018-06-07 20:52  
це ржака!
звичайно, дуже схоже на студентьську/дипломну роботу... але ж ржака! діалоги - бімба Wink (1)

wadyulya 
Новенький


З нами з: 05.06.08
Востаннє: 07.03.21
Повідомлень: 5

2018-06-09 21:21  
Такого лай.на я вже давно не бачив. Сценарист, режисер, (виявляється це ще і одна людина)))актори дерев'яні - фільм ідеальний нуль у всіх розуміннях і аспектах.
DjinTolik 
Новенький


З нами з: 19.05.17
Востаннє: 20.02.21
Повідомлень: 1

2018-07-13 22:32  
пайдет)) я навіть посміхнувся..
sansaclip-r 
Свій


З нами з: 25.12.08
Востаннє: 24.06.20
Повідомлень: 70

2018-09-05 23:42  
Ніяке таке.
Добре шо переглянув онлайн не скачуючи.

tarastrojan 
Новенький


З нами з: 27.02.15
Востаннє: 03.03.21
Повідомлень: 7

2018-09-16 10:48  
на що я потратив 15 хвилин
valerii kolobkov 
Новенький


З нами з: 20.12.16
Востаннє: 05.03.21
Повідомлень: 7

2018-10-30 13:50  
дійсно, непогано
Thruster 
Новенький


З нами з: 30.10.11
Востаннє: 08.03.21
Повідомлень: 16

2019-06-09 03:07  
Озвучка просто жахлива! Відчувається, що українська мова для акторів і авторів діалогів - не рідна. Репліки дубові, звучать по-московськи - і це ріже слух і крає серце. Sad (1)
Bohonek 
Свій


З нами з: 21.12.12
Востаннє: 07.03.21
Повідомлень: 144

2019-07-06 14:35  
За рівнем цинічно-дебільної американщини дорівнює фільму "Селфіпаті". Кому подобається - качайте
StepKryha 
Поважний учасник


З нами з: 21.06.17
Востаннє: 08.03.21
Повідомлень: 211

2019-10-16 20:41  
Цікавий фільм, але акторська гра та монтаж ( ? ) дещо підвели. Але добре. що він короткий. :)

6 / 10.

Ваш часовий пояс: GMT + 2 Години

Нова тема   Відповісти