Потворна кралечка (2018) 2K

Нові коментарі

Нова тема   Відповісти
Автор Повідомлення
Anonymous 







2018-03-11 11:48  
Потворна кралечка (2018) 2K

Потворна кралечка (2018) 2K


Жанр: комедія, короткометражний
Країна: Україна

Кінокомпанія: Sane Brain Productions
Режисер, сценарист, продюсер: Роман Перфільєв
Актори: Ірина Антоненко, Денис Яров, Катерина Артеменко, Владислав Лисак, Леонід Чесноков

Сюжет:
Дівчина з гарячим тілом, але потворним обличчям, знаходячись на сліпому побаченні намагається приховати свій писок у різні способи, щоб не злякати кавалера...


Вікова категорія: 12+

Переглянути онлайн:


Тривалість: 00:15:04
Якість: 2K
Відео:
кодек: VP9
розмір кадру: 2048 х 858
бітрейт: 3493 кб/с

Аудіо:
мова: українська
переклад: оригінал
кодек: 2.0
бітрейт: 126 кб/с
Info
Код:
Complete name               :Potvorna kralechka (2018) 2K [Hurtom].
Format                      :
Format version              : Version 4 / Version 2
File size                   : 390 MiB
Duration                    : 15 min 4 s
Overall bit rate            : 3 622 kb/s
Movie name                  : Потворна кралечка (2018) 2K [Hurtom]
Encoded date                : UTC 2018-03-10 19:58:51
Writing application         : v21.0.0 ('Tardigrades Will Inherit The Earth') 64-bit
Writing library             : libebml v1.3.5 + v1.4.8
Cover                       : Yes
Attachments                 : cover.jpg

Video
ID                          : 1
Format                      : VP9
Codec ID                    : V_VP9
Duration                    : 15 min 4 s
Bit rate                    : 3 493 kb/s
Width                       : 2 048 pixels
Height                      : 858 pixels
Display aspect ratio        : 2.40:1
Frame rate mode             : Constant
Frame rate                  : 24.000 FPS
Color space                 : YUV
Bits/(Pixel*Frame)          : 0.083
Stream size                 : 376 MiB (96%)
Title                       : Потворна кралечка (2018) 2K [Hurtom]
Language                    : Ukrainian
Default                     : Yes
Forced                      : No
Color range                 : Limited
Color primaries             : BT.709
Transfer characteristics    : BT.709
Matrix coefficients         : BT.709

Audio
ID                          : 2
Format                      :
Format/Info                 : Advanced Audio Codec
Format profile              : LC
Codec ID                    : A_AAC-2
Duration                    : 15 min 4 s
Bit rate                    : 126 kb/s
Channel(s)                  : 2 channels
Channel positions           : Front: L R
Sampling rate               : 44.1 kHz
Frame rate                  : 43.066 FPS (1024 SPF)
Compression mode            : Lossy
Stream size                 : 13.5 MiB (3%)
Language                    : Ukrainian
Default                     : Yes
Forced                      : No


Джерело: &


Золотий реліз (завантажене не впливає на рейтинг)
 Трекер:    Зареєстрований   

Завантажити / скачати український фільм



відео для новачків



 Зареєстрований:   2018-03-11 11:48
 Розмір:   390 MB 
 Оцінка фільму:   8.6/10 (Голосів: 14)
   
Avay 
Частий відвідувач


З нами з: 23.12.12
Востаннє: 18.09.18
Повідомлень: 30

2018-03-13 20:28  
Фігня повна. Годиться хіба що в якості студентської роботи. І то я невпевнений в цьому.
Ярпен 
Оцифрування книг Гуртом
Оцифрування книг Гуртом


З нами з: 09.10.13
Востаннє: 24.08.18
Повідомлень: 2048

2018-03-13 22:18  
Anonymous написано:
Актори:

Йой, там ще й актори були. Не помітив. Ги.

Ваш часовий пояс: GMT + 2 Години

Нова тема   Відповісти