Пінг-понг (Серії 11 з 11) / Ping Pong: The Animation (2014) 720p Jap| Sub Ukr

Нові коментарі

Нова тема   Відповісти
Автор Повідомлення
Mitsuruki 
VIP


З нами з: 27.09.17
Востаннє: 17.11.19
Повідомлень: 541

2018-03-11 01:17  
Пінг-понг (Серії 11 з 11) / Ping Pong: The Animation (2014) 720p Jap| Sub Ukr

Пінг-понг (Серії 11 з 11) / Ping Pong: The Animation (2014) 720p Jap| Sub Ukr



Жанр: Спорт
Країна: Японія

Кінокомпанія: Tatsunoko Production
Режисер: Юаса Масаакі
Сюжет:
Макото Цукімото настільки похмурий, що всі іронічно називають його Смішком. Разом з товаришами по клубу він грає в пінг-понг з самого дитинства. Його близький друг, хлопець на прізвисько Пеко також грає з ним і завдяки своєму пробивному характеру добився успіхів у грі. Сам Смішок, хоч і має великий талант до пінг-понгу — не може побороти свої страхи та почати грати як слід. Пеко, з іншого боку, має надто гарячу голову та імпульсивний характер, що теж впливає на його гру. Хоч ця двійка і є найкращими гравцями клубу, але рухатися далі вони не зможуть, доки розберуться зі своїми проблемами.
У них з'являється такий шанс, коли у школі, до клубу якої приписані хлопці, починають проводити міжшкільні національні змагання.


Тривалість: 23 хв на серію. Усього 11 серій.
Перелік серій:

01. The Wind Makes It Too Hard to Hear
02. Sumairu wa Robotto
03. Takkyuu ni Jinsei o Kakeru Nante Kimi ga Warui
04. Zettai ni makenai yuiitsu no hôhô wa tatakawanai kotoda
05. Doko de machigaeta?
06. Omae dare yori takkyû-sukijan yo!!
07. Iesu maikôchi
08.
09.
10.
11.
Якість: 720p
Відео:
кодек:
розмір кадру: 1280 х 720
бітрейт: ~ 1 700 кб/с

Аудіо:
мова: японська
переклад: оригінал
кодек: 2.0
бітрейт: 165 кб/с

Субтитри:
мова: українська
тип: програмні (м'які)
формат: *.
Info
General
General
Unique ID : 160087697424793627012737331671948196097 (0x786FC4DE7BFC8B1F6FFB017217ADF901)
Format :
Format version : Version 4
File size : 317 MiB
Duration : 23 min 4 s
Overall bit rate : 1 918 kb/s
Encoded date : UTC 2019-03-10 10:03:42
Writing application : v30.1.0 ('Forever And More') 64-bit
Writing library : libebml v1.3.6 + v1.4.9
Attachments : ITC_Officina_Sans_LT_Bold.ttf / ITC_Officina_Sans_LT_Bold_Italic.ttf / Maggie Moo.otf / manic-depressive.ttf / MS-Scratch.ttf / MuddyTractorDEMO-KCFonts.ttf / PIXEARG.TTF / Sketchy.ttf / Waiting for the Sunrise.ttf / Happy Sans_0.ttf / I shot the Serif v1.otf

Video
ID : 2
Format : AVC
Format/Info : Advanced Video Codec
Format profile : High [email protected]
Format settings : CABAC / 16 Ref Frames
Format settings, CABAC : Yes
Format settings, ReFrames : 16 frames
Codec ID : V_MPEG4/ISO/AVC
Duration : 23 min 4 s
Bit rate : 1 740 kb/s
Width : 1 280 pixels
Height : 720 pixels
Display aspect ratio : 16:9
Frame rate mode : Constant
Frame rate : 23.976 (24000/1001) FPS
Color space : YUV
Chroma subsampling : 4:2:0
Bit depth : 10 bits
Scan type : Progressive
Bits/(Pixel*Frame) : 0.079
Stream size : 287 MiB (91%)
Writing library : core 142 r2431+42 c69a006 tMod [[email protected] X86_64]
Encoding settings : cabac=1 / ref=16 / deblock=1:0:0 / analyse=0x3:0x133 / me=umh / subme=10 / psy=1 / fade_compensate=0.72 / psy_rd=0.80:0.20 / mixed_ref=1 / me_range=24 / chroma_me=1 / trellis=2 / 8x8dct=1 / cqm=0 / deadzone=21,11 / fast_pskip=1 / chroma_qp_offset=-3 / threads=18 / lookahead_threads=4 / sliced_threads=0 / nr=0 / decimate=1 / interlaced=0 / bluray_compat=0 / constrained_intra=0 / fgo=0 / bframes=16 / b_pyramid=2 / b_adapt=2 / b_bias=0 / direct=3 / weightb=1 / open_gop=0 / weightp=2 / keyint=250 / keyint_min=23 / scenecut=40 / intra_refresh=0 / rc_lookahead=60 / rc=crf / mbtree=1 / crf=16.0000 / qcomp=0.72 / qpmin=0:0:0 / qpmax=81:81:81 / qpstep=4 / ip_ratio=1.40 / aq=3:0.80 / aq-sensitivity=10.00 / aq-factor=1.00:1.00:1.00 / aq2=0 / aq3=0
Language : English
Default : Yes
Forced : No

Audio
ID : 3
Format : LC
Format/Info : Advanced Audio Codec Low Complexity
Codec ID : A_AAC-2
Duration : 23 min 4 s
Bit rate : 167 kb/s
Channel(s) : 2 channels
Channel layout : L R
Sampling rate : 48.0 kHz
Frame rate : 46.875 FPS (1024 SPF)
Compression mode : Lossy
Stream size : 27.6 MiB (9%)
Title : Commie
Language : Japanese
Default : Yes
Forced : No

Text
ID : 1
Format :
Codec ID : S_TEXT/
Codec ID/Info : Advanced Sub Station Alpha
Duration : 23 min 4 s
Bit rate : 269 b/s
Count of elements : 522
Compression mode : Lossless
Stream size : 45.5 KiB (0%)
Title : Mitsuruki
Language : Ukrainian
Default : Yes
Forced : Yes
Скріншоти


Джерело: CoalGirls & Переклад Mitsuruki
Особиста оцінка:
Цьому тайтлу вже 5 років. Він їх провів у ТОП-100 найкращих анім за увесь час. Це беззаперечно робота, яка має бути переглянути усіма. Хоча б, щоб знати на що спроможна анімація в руках майстра.


Золотий реліз (завантажене не впливає на рейтинг)
 Трекер:    Зареєстрований   

Завантажити / скачати аніме українською



відео для новачків



 Зареєстрований:   2019-03-10 12:37
 Розмір:   3.38 GB 
 Оцінка аніме:   10/10 (Голосів: 2)
   
Mitsuruki 
VIP


З нами з: 27.09.17
Востаннє: 17.11.19
Повідомлень: 541

2018-05-11 10:26  
Додали ще дві серії!
Mitsuruki 
VIP


З нами з: 27.09.17
Востаннє: 17.11.19
Повідомлень: 541

2018-08-16 09:01  
Додали ще дві серії!
Mitsuruki 
VIP


З нами з: 27.09.17
Востаннє: 17.11.19
Повідомлень: 541

2018-08-18 13:45  
Додана 7ма серія!
Mitsuruki 
VIP


З нами з: 27.09.17
Востаннє: 17.11.19
Повідомлень: 541

2019-03-10 12:39  
Велике, повне (і можливо фінальне) оновлення роздачі.
Додано останні 4 серії, підправлені таймінги, виправлені деякі помилки.
Усе закинуто в контейнер МКВ, видалена англ субтитра.

EvGaS 
Відео Гуртом - субтитрування
Відео Гуртом - субтитрування


З нами з: 27.02.12
Востаннє: 31.07.19
Повідомлень: 5674

2019-04-20 13:27  
Занадто переоцінене.

Було писав власні враження, та збилося щось.

Анімація дуже рвана. М’ячик від ракетки до ракетки летить через увесь стіл «аж» трьома кадрами.
Хореографія — не супер, але добра.
Стиль мені візуально не сподобався. Надається дивними геометричними формами. Переважно статичний.
Ще є характерні хвилясті лінії через якийсь фільтр — намальовано не сильно «від руки», інакше б перескакувало на кадрах. Сильно помітно було на збільшенні на бровах.
Є старий як світ трюк розділення кадру на багато малих частин. Виглядає як сторінка такого собі комікса. Просто але дієво.

Ще раз згадаю про сильну рваність анімації. Якщо порівнювати, то Діджей Тонкацу Аґетаро є не менш альтернативним стилем. Ласкаво просимо на паркет має значно кращу хореографію, не кажучи вже про природність плавності рухів великої частини аніме 00-вих 90-стих чи 80-тих (десь 1994-2004 був пік розвитку з гарним балансом «аналогового» й «електронного»). Та навіть самопалка від руки одним аніматором Нефталі є плавнішою і природнішою: https://toloka.to/t81530 І грець з тим, чи воно аніме чи не аніме — воно все анімація.

Шукав-шукав. Дивився-дивився. Два рази намагавсь переглядати, на цей раз все намагавсь зрозуміти чого від нього так тащуться як від суперанімації — не зміг нічого побачити. Так, воно творче і експериментальне. Але якість анімації — нічого незвичного, чого не могло б не бути у якихось старих експериментальних мультах. Мені здається, що воно популярне просто тому що нове — 2014 рік. Просто воно трохи повернулося назад до художнього малювання. Де ж інші мульти, про які я згадував? Чому про них не кажуть? Ну… інет погано пам’ятає те, що могло бути до йог появи. Крім найвідоміших речей.

Дуже переоцінена річ у часи відсутності художнього «аналогового» 2-Д малювання.

Додано через 13 хвилин 11 секунд:

Буде добре, якщо хтось спробує пояснити те, чого мені не вдалося побачити.
Бо всім до вподоби, а мені — ні.

Ваш часовий пояс: GMT + 2 Години

Нова тема   Відповісти