Відмінниця легкої поведінки / Easy A (2010) 720p 2xUkr/Eng | Sub Ukr/Eng

Нові коментарі

Нова тема   Відповісти
Автор Повідомлення
staf777 
Попереджень: 1
Попереджень: 1 


З нами з: 16.11.16
Востаннє: 16.10.18
Повідомлень: 1632

2018-03-09 16:34  
Відмінниця легкої поведінки / Easy A (2010) 720p 2xUkr/Eng | Sub Ukr/Eng

Відмінниця легкої поведінки / Easy A (2010) 720p 2xUkr/Eng | Sub Ukr/Eng
Альтернативний український постер:

Жанр: мелодрама, комедія
Країна: США



Кінокомпанія: Will Gluck Productions
Режисер: Вілл Глак
Актори: Емма Стоун, Пенн Бедглі, Аманда Байнс, Томас Гайден Чорч, Патрісія Кларксон, Кем Гігандет, Ліза Кудроу, Малкольм МакДавелл, Елісон Мічалка, Стенлі Туччі

Сюжет:
Головна героїня - дівчина Олів (Емма Стоун), над якою насміхаються через плітки про втрату нею невинності в школі з пуританськими звичаями. Але їй вдається використати ці чутки собі на користь і відразу стати популярною, помітно змінивши засади школи.


Тривалість: 01:32:24
Якість: 720p
Відео:
кодек:
розмір кадру: 1280x692
бітрейт: 5265 кб/с

Аудіо # 1:
мова: українська
переклад: багатоголосий закадровий
кодек: 2.0 (стерео)
бітрейт: 192 кб/с

Аудіо # 2:
мова: українська
переклад: багатоголосий закадровий
кодек: 2.0 (стерео)
бітрейт: 192 кб/с

Аудіо # 3:
мова: англійська
переклад: оригінал
кодек: 5.1
бітрейт: 1509 кб/с

Субтитри:
мова: українська
тип: програмні (м'які)
формат: *.srt

Субтитри:
мова: англійська
тип: програмні (м'які)
формат: *.srt
Info
General
Unique ID : 225697362669492992582492133553910068042 (0xA9CBBB1D24AA0E16D3C6346D8C34334A)
Complete name : H:\Easy A (2010) 720p [2xUKR_ENG] [Hurtom].
Format :
Format version : Version 4 / Version 2
File size : 4.62 GiB
Duration : 1 h 32 min
Overall bit rate : 7 162 kb/s
Movie name : Easy A (2010) 720p [2xUKR_ENG] [Hurtom]
Encoded date : UTC 2018-09-25 15:22:56
Writing application : v24.0.0 ('Beyond The Pale') 64-bit
Writing library : libebml v1.3.6 + v1.4.9
Cover : Yes
Attachments : cover.jpg

Video
ID : 1
Format : AVC
Format/Info : Advanced Video Codec
Format profile : [email protected]
Format settings : CABAC / 9 Ref Frames
Format settings, CABAC : Yes
Format settings, ReFrames : 9 frames
Codec ID : V_MPEG4/ISO/AVC
Duration : 1 h 32 min
Bit rate : 5 265 kb/s
Width : 1 280 pixels
Height : 692 pixels
Display aspect ratio : 1.85:1
Frame rate mode : Constant
Frame rate : 23.976 FPS
Color space : YUV
Chroma subsampling : 4:2:0
Bit depth : 8 bits
Scan type : Progressive
Bits/(Pixel*Frame) : 0.248
Stream size : 3.40 GiB (74%)
Writing library : core 104 r1713 c276662
Encoding settings : cabac=1 / ref=9 / deblock=1:-3:-3 / analyse=0x3:0x113 / me=umh / subme=10 / psy=1 / psy_rd=1.03:0.02 / mixed_ref=1 / me_range=32 / chroma_me=1 / trellis=2 / 8x8dct=1 / cqm=0 / deadzone=21,11 / fast_pskip=0 / chroma_qp_offset=-5 / threads=12 / sliced_threads=0 / nr=0 / decimate=0 / interlaced=0 / constrained_intra=0 / bframes=5 / b_pyramid=2 / b_adapt=2 / b_bias=0 / direct=3 / weightb=1 / open_gop=0 / weightp=2 / keyint=250 / keyint_min=23 / scenecut=40 / intra_refresh=0 / rc_lookahead=50 / rc=2pass / mbtree=1 / bitrate=5265 / ratetol=1.0 / qcomp=0.60 / qpmin=10 / qpmax=51 / qpstep=4 / cplxblur=20.0 / qblur=0.5 / vbv_maxrate=40000 / vbv_bufsize=40000 / ip_ratio=1.40 / aq=2:0.80 / nal_hrd=none
Language : English
Default : Yes
Forced : No

Audio #1
ID : 2
Format : AC-3
Format/Info : Audio Coding 3
Codec ID : A_AC3
Duration : 1 h 32 min
Bit rate mode : Constant
Bit rate : 192 kb/s
Channel(s) : 2 channels
Channel positions : Front: L R
Sampling rate : 48.0 kHz
Frame rate : 31.250 FPS (1536 SPF)
Bit depth : 16 bits
Compression mode : Lossy
Stream size : 127 MiB (3%)
Title : Новий канал
Language : Ukrainian
Service kind : Complete Main
Default : Yes
Forced : Yes

Audio #2
ID : 3
Format : AC-3
Format/Info : Audio Coding 3
Codec ID : A_AC3
Duration : 1 h 32 min
Bit rate mode : Constant
Bit rate : 192 kb/s
Channel(s) : 2 channels
Channel positions : Front: L R
Sampling rate : 48.0 kHz
Frame rate : 31.250 FPS (1536 SPF)
Bit depth : 16 bits
Compression mode : Lossy
Stream size : 127 MiB (3%)
Title : [Paramount Comedy][Ukr 2.0 stereo]
Language : Ukrainian
Service kind : Complete Main
Default : No
Forced : No

Audio #3
ID : 4
Format :
Format/Info : Digital Theater Systems
Codec ID : A_DTS
Duration : 1 h 32 min
Bit rate mode : Constant
Bit rate : 1 509 kb/s
Channel(s) : 6 channels
Channel positions : Front: L C R, Side: L R, LFE
Sampling rate : 48.0 kHz
Frame rate : 93.750 FPS (512 SPF)
Bit depth : 24 bits
Compression mode : Lossy
Stream size : 997 MiB (21%)
Language : English
Default : No
Forced : No

Text #1
ID : 5
Format : UTF-8
Codec ID : S_TEXT/UTF8
Codec ID/Info : UTF-8 Plain Text
Duration : 1 h 26 min
Bit rate : 127 b/s
Count of elements : 1320
Stream size : 81.2 KiB (0%)
Title : Повні Blu-ray
Language : Ukrainian
Default : No
Forced : No

Text #2
ID : 6
Format : UTF-8
Codec ID : S_TEXT/UTF8
Codec ID/Info : UTF-8 Plain Text
Duration : 1 h 26 min
Bit rate : 99 b/s
Count of elements : 1484
Stream size : 63.1 KiB (0%)
Language : English
Default : No
Forced : No
Скріншоти





Запис і синхронізація звуку: Bohdan237 , запис доріжки №2 - Neytreenor.
Українізований постер: bilenkuyboy, редагування Bohdan237
Українські субтитри: braveboy, редагування TheMarlboro

Джерело: &
Особиста оцінка: 0 - не дивився


Золотий реліз (завантажене не впливає на рейтинг)
 Трекер:    Зареєстрований   

Завантажити / скачати фільм українською



відео для новачків



 Зареєстрований:   2018-09-25 18:52
 Розмір:   4.62 GB 
 Оцінка фільму:   8.6/10 (Голосів: 17)
   
bisivka 
Новенький


З нами з: 08.03.17
Востаннє: 08.10.18
Повідомлень: 21

2018-03-13 00:17  
Дякую, на гру Емми Стоун завжди цікаво дивитися).
staf777 
Попереджень: 1
Попереджень: 1 


З нами з: 16.11.16
Востаннє: 16.10.18
Повідомлень: 1632

2018-09-25 18:53  
Додав доріжку від 
igor911 
Відео Гуртом
Відео Гуртом


З нами з: 18.01.08
Востаннє: 17.10.18
Повідомлень: 11240

2018-09-25 18:59  
"золото" на тиждень для заохочення підтримки.
casper101 
VIP


З нами з: 03.12.09
Востаннє: 16.10.18
Повідомлень: 319

2018-09-25 19:47  
точна назва фільму легка 5
Ваш часовий пояс: GMT + 2 Години

Нова тема   Відповісти