Відмінниця легкої поведінки / Easy A (2010) 1080p 2xUkr/Eng | Sub Ukr/Eng

Нові коментарі

Нова тема   Відповісти
Автор Повідомлення
staf777 
Попереджень: 1
Попереджень: 1 


З нами з: 16.11.16
Востаннє: 19.12.18
Повідомлень: 1940

2018-03-09 15:30  
Відмінниця легкої поведінки / Easy A (2010) 1080p 2xUkr/Eng | Sub Ukr/Eng

Відмінниця легкої поведінки / Easy A (2010) 1080p 2xUkr/Eng | Sub Ukr/Eng


Жанр: мелодрама, комедія
Країна: США



Кінокомпанія: Will Gluck Productions
Режисер: Вілл Глак
Актори: Емма Стоун, Пенн Бедглі, Аманда Байнс, Томас Гайден Чорч, Патрісія Кларксон, Кем Гігандет, Ліза Кудроу, Малкольм МакДавелл, Елісон Мічалка, Стенлі Туччі

Сюжет:
Головна героїня - дівчина Олів (Емма Стоун), над якою насміхаються через плітки про втрату нею невинності в школі з пуританськими звичаями. Але їй вдається використати ці чутки собі на користь і відразу стати популярною, помітно змінивши засади школи.


Тривалість: 01:32:24
Якість:
Відео:
кодек:
розмір кадру: 1920x1038
бітрейт: 10800 кб/с

Аудіо # 1:
мова: українська
переклад: багатоголосий закадровий
кодек: 2.0
бітрейт: 192 кб/с

Аудіо # 2:
мова: українська
переклад: багатоголосий закадровий
кодек: 2.0 (стерео)
бітрейт: 192 кб/с

Аудіо # 3:
мова: англійська
переклад: оригінал
кодек: 5.1
бітрейт: 1509 кб/с

Субтитри:
мова: українська
тип: програмні (м'які)
формат: *.srt

Субтитри:
мова: англійська
тип: програмні (м'які)
формат: *.srt
Info
General
Unique ID : 211678411100413689893505676079622649185 (0x9F3FC76FF153CF18B2E668DA4AC5F561)
Complete name : H:\ Easy A (2010) 1080p [2xUKR_ENG] [Hurtom].
Format :
Format version : Version 4 / Version 2
File size : 8.18 GiB
Duration : 1 h 32 min
Overall bit rate : 12.7 Mb/s
Movie name : Easy A (2010) 1080p [2xUKR_ENG] [Hurtom]
Encoded date : UTC 2018-09-26 16:26:49
Writing application : v24.0.0 ('Beyond The Pale') 64-bit
Writing library : libebml v1.3.6 + v1.4.9
Cover : Yes
Attachments : cover.jpg

Video
ID : 1
Format : AVC
Format/Info : Advanced Video Codec
Format profile : [email protected]
Format settings : CABAC / 4 Ref Frames
Format settings, CABAC : Yes
Format settings, ReFrames : 4 frames
Codec ID : V_MPEG4/ISO/AVC
Duration : 1 h 32 min
Bit rate : 10.8 Mb/s
Width : 1 920 pixels
Height : 1 038 pixels
Display aspect ratio : 1.85:1
Frame rate mode : Constant
Frame rate : 23.976 FPS
Color space : YUV
Chroma subsampling : 4:2:0
Bit depth : 8 bits
Scan type : Progressive
Bits/(Pixel*Frame) : 0.225
Stream size : 6.95 GiB (85%)
Writing library : core 107 r1772 c9dad9e
Encoding settings : cabac=1 / ref=4 / deblock=1:-3:-3 / analyse=0x3:0x113 / me=umh / subme=9 / psy=1 / psy_rd=1.10:0.15 / mixed_ref=1 / me_range=32 / chroma_me=1 / trellis=2 / 8x8dct=1 / cqm=0 / deadzone=21,11 / fast_pskip=0 / chroma_qp_offset=-2 / threads=6 / sliced_threads=0 / nr=0 / decimate=1 / interlaced=0 / constrained_intra=0 / bframes=5 / b_pyramid=2 / b_adapt=2 / b_bias=0 / direct=3 / weightb=1 / open_gop=0 / weightp=2 / keyint=250 / keyint_min=23 / scenecut=40 / intra_refresh=0 / rc_lookahead=60 / rc=2pass / mbtree=1 / bitrate=10768 / ratetol=2.0 / qcomp=0.70 / qpmin=10 / qpmax=51 / qpstep=4 / cplxblur=20.0 / qblur=0.5 / vbv_maxrate=40000 / vbv_bufsize=30000 / ip_ratio=1.40 / aq=1:0.90 / nal_hrd=none
Language : English
Default : Yes
Forced : Yes

Audio #1
ID : 2
Format : AC-3
Format/Info : Audio Coding 3
Codec ID : A_AC3
Duration : 1 h 32 min
Bit rate mode : Constant
Bit rate : 192 kb/s
Channel(s) : 2 channels
Channel positions : Front: L R
Sampling rate : 48.0 kHz
Frame rate : 31.250 FPS (1536 SPF)
Bit depth : 16 bits
Compression mode : Lossy
Stream size : 127 MiB (2%)
Title : Новий канал
Language : Ukrainian
Service kind : Complete Main
Default : Yes
Forced : Yes

Audio #2
ID : 3
Format : AC-3
Format/Info : Audio Coding 3
Codec ID : A_AC3
Duration : 1 h 32 min
Bit rate mode : Constant
Bit rate : 192 kb/s
Channel(s) : 2 channels
Channel positions : Front: L R
Sampling rate : 48.0 kHz
Frame rate : 31.250 FPS (1536 SPF)
Bit depth : 16 bits
Compression mode : Lossy
Stream size : 127 MiB (2%)
Title : [UA-MVO]
Language : Ukrainian
Service kind : Complete Main
Default : No
Forced : No

Audio #3
ID : 4
Format :
Format/Info : Digital Theater Systems
Codec ID : A_DTS
Duration : 1 h 32 min
Bit rate mode : Constant
Bit rate : 1 509 kb/s
Channel(s) : 6 channels
Channel positions : Front: L C R, Side: L R, LFE
Sampling rate : 48.0 kHz
Frame rate : 93.750 FPS (512 SPF)
Bit depth : 24 bits
Compression mode : Lossy
Stream size : 997 MiB (12%)
Title : English 5.1 1509Kbps
Language : English
Default : No
Forced : No

Text #1
ID : 5
Format : UTF-8
Codec ID : S_TEXT/UTF8
Codec ID/Info : UTF-8 Plain Text
Duration : 1 h 26 min
Bit rate : 127 b/s
Count of elements : 1320
Stream size : 81.2 KiB (0%)
Title : Повні Blu-ray
Language : Ukrainian
Default : No
Forced : No

Text #2
ID : 6
Format : UTF-8
Codec ID : S_TEXT/UTF8
Codec ID/Info : UTF-8 Plain Text
Duration : 1 h 26 min
Bit rate : 99 b/s
Count of elements : 1484
Stream size : 63.1 KiB (0%)
Language : English
Default : No
Forced : No
Скріншоти




Запис і зведення звуку: Bohdan237
Українізований постер: bilenkuyboy, редагування Bohdan237
Українські субтитри: braveboy, редагування TheMarlboro

Джерело: &
Особиста оцінка: 0 - не дивився


 Трекер:    Зареєстрований   

Завантажити / скачати фільм українською



відео для новачків



 Зареєстрований:   2018-09-26 18:45
 Розмір:   8.18 GB 
 Оцінка фільму:   8.9/10 (Голосів: 16)
   
staf777 
Попереджень: 1
Попереджень: 1 


З нами з: 16.11.16
Востаннє: 19.12.18
Повідомлень: 1940

2018-09-26 18:47  
Додав доріжку від 
VitNi 
Свій


З нами з: 05.05.12
Востаннє: 19.12.18
Повідомлень: 107

2018-09-26 20:13  
Чудовий фільм...
Я третє його передивився і з тим же задоволенням.
Шо сюжет, шо гра акторів та все з приємним гумором - класс. Happy

Neytreenor 
Відео Гуртом - запис з ТБ
Відео Гуртом - запис з ТБ


З нами з: 03.04.11
Востаннє: 19.12.18
Повідомлень: 1525

2018-09-26 20:41  
2xUkr загубили.
igor911 
Відео Гуртом
Відео Гуртом


З нами з: 18.01.08
Востаннє: 19.12.18
Повідомлень: 11620

2018-09-26 20:44  
Neytreenor, дякую, виправив.
Ваш часовий пояс: GMT + 2 Години

Нова тема   Відповісти