Форма води / The Shape of Water (2017) mini 1080p H.265 Ukr/Eng | Sub Ukr/Eng

Нові коментарі

Нова тема   Відповісти
Автор Повідомлення
igor302 
Свій


З нами з: 27.10.11
Востаннє: 15.11.18
Повідомлень: 108

2018-03-08 23:53  
Форма води / The Shape of Water (2017) mini 1080p H.265 Ukr/Eng | Sub Ukr/Eng

Форма води / The Shape of Water (2017) mini 1080p H.265 Ukr/Eng | Sub Ukr/Eng


Жанр: драма, мелодрама, пригоди, трилер, фентезі
Країна: США



Кінокомпанія: Bull Productions, Double Dare You (DDY), Fox Searchlight Pictures
Режисер: Ґільєрмо Дель Торо
Актори: Саллі Гоукінс, Майкл Шеннон, Річард Дженкінс, Октавія Спенсер, Майкл Сталберґ, Даґ Джонс, Лорен Лі Сміт, Девід Х'юлетт, Нік Сірсі, Стюарт Арнотт та інші

Сюжет:
На дворі 60-ті роки минулого століття. У секретній лабораторії прибиральницею працює Елайза (Саллі Гоукінс). Понад усе вона хотіла б співати, бо дуже любить музику, проте її мрії не судилося здійснитися, адже вона німа. Якось до лабораторії привозять дивне створіння. Істота живе у воді, і досліджують її як тварину, проте Елайза точно знає, що піддослідний має інтелект. І він симпатизує дівчині, не помічаючи її головної вади. Дізнавшись, що науковці у своїх дослідах планують знущання над істотою, Елайза вирішує влаштувати втечу.


Тривалість: 02:03:19
Якість:
Відео:
кодек: H.265 (HEVC)
розмір кадру: 1920 x 1036
бітрейт: ~3202 кб/с
бітова глибина: 10 біт
Увага! Перед завантаженням переконайтесь, що ваш пристрій відтворення (та/або ПЗ) підтримують H.265 (HEVC) та 10 біт

Аудіо # 1:
мова: українська
переклад: професійний дубльований
кодек: 5.1
бітрейт: 448 кб/с

Аудіо # 2:
мова: англійська
переклад: оригінал
кодек: 5.1
бітрейт: 448 кб/с

Субтитри: #1-2
мова: українська (повні, форсовані)
тип: програмні (м'які)
формат: *.srt

Субтитри: #3-5
мова: англійська (форсовані, повні, SHD)
тип: програмні (м'які)
формат: *.srt


Info
Код:
General
Unique ID                                : 174149987845610469458003191336480811412 (0x83041150E5DA647AAF4A86856B542994)
Complete name                            : E:\Video\The Shape of Water (2017) 1080p H.265 [UKR_ENG].
Format                                   :
Format version                           : Version 4 / Version 2
File size                                : 3.53 GiB
Duration                                 : 2 h 3 min
Overall bit rate                         : 4 100 kb/s
Movie name                               : The Shape of Water (2017)
Encoded date                             : UTC 2018-09-10 10:07:00
Writing application                      : v20.0.0 ('I Am The Sun') 32-bit
Writing library                          : libebml v1.3.5 + v1.4.8
Cover                                    : Yes
Attachments                              : cover.jpg

Video
ID                                       : 1
Format                                   : HEVC
Format/Info                              : High Efficiency Video Coding
Format profile                           : Main [email protected]@High
Codec ID                                 : V_MPEGH/ISO/HEVC
Duration                                 : 2 h 3 min
Bit rate                                 : 3 202 kb/s
Width                                    : 1 920 pixels
Height                                   : 1 036 pixels
Display aspect ratio                     : 1.85:1
Frame rate mode                          : Constant
Frame rate                               : 23.976 (24000/1001) FPS
Color space                              : YUV
Chroma subsampling                       : 4:2:0
Bit depth                                : 10 bits
Bits/(Pixel*Frame)                       : 0.067
Stream size                              : 2.76 GiB (78%)
Writing library                          : x265 2.6+22-ff02513b92c0:[Windows][GCC 7.2.0][64 bit] 10bit
Encoding settings                        : cpuid=1173503 / frame-threads=3 / numa-pools=8 / wpp / pmode / no-pme / no-psnr / ssim / log-level=2 / input-csp=1 / input-res=1920x1036 / interlace=0 / total-frames=0 / level-idc=41 / high-tier=1 / uhd-bd=0 / ref=5 / no-allow-non-conformance / repeat-headers / annexb / no-aud / no-hrd / info / hash=0 / no-temporal-layers / open-gop / min-keyint=23 / keyint=250 / gop-lookahead=0 / bframes=10 / b-adapt=2 / b-pyramid / bframe-bias=0 / rc-lookahead=60 / lookahead-slices=1 / scenecut=40 / radl=0 / no-intra-refresh / ctu=64 / min-cu-size=8 / no-rect / no-amp / max-tu-size=32 / tu-inter-depth=3 / tu-intra-depth=3 / limit-tu=0 / rdoq-level=1 / dynamic-rd=2.00 / no-ssim-rd / signhide / no-tskip / nr-intra=0 / nr-inter=0 / no-constrained-intra / no-strong-intra-smoothing / max-merge=2 / limit-refs=0 / no-limit-modes / me=2 / subme=7 / merange=57 / temporal-mvp / weightp / weightb / no-analyze-src-pics / deblock=-3:-3 / no-sao / no-sao-non-deblock / rd=4 / no-early-skip / no-rskip / no-fast-intra / no-tskip-fast / no-cu-lossless / no-b-intra / no-splitrd-skip / rdpenalty=0 / psy-rd=1.75 / psy-rdoq=2.50 / no-rd-refine / no-lossless / cbqpoffs=0 / crqpoffs=0 / rc=crf / crf=22.0 / qcomp=0.80 / qpstep=6 / stats-write=0 / stats-read=0 / vbv-maxrate=50000 / vbv-bufsize=50000 / vbv-init=0.9 / crf-max=0.0 / crf-min=0.0 / ipratio=1.50 / pbratio=1.00 / aq-mode=1 / aq-strength=0.20 / no-cutree / zone-count=0 / no-strict-cbr / qg-size=32 / no-rc-grain / qpmax=69 / qpmin=0 / no-const-vbv / sar=1 / overscan=0 / videoformat=5 / range=0 / colorprim=2 / transfer=2 / colormatrix=2 / chromaloc=0 / display-window=0 / max-cll=0,0 / min-luma=0 / max-luma=1023 / log2-max-poc-lsb=8 / vui-timing-info / vui-hrd-info / slices=1 / no-opt-qp-pps / no-opt-ref-list-length-pps / no-multi-pass-opt-rps / scenecut-bias=0.05 / no-opt-cu-delta-qp / aq-motion / no-hdr / no-hdr-opt / no-dhdr10-opt / analysis-save=(null) / analysis-load=(null) / analysis-reuse-level=5 / scale-factor=0 / refine-intra=0 / refine-inter=0 / refine-mv=0 / no-limit-sao / ctu-info=0 / no-lowpass-dct / refine-mv-type=0 / copy-pic=1
Default                                  : Yes
Forced                                   : Yes

Audio #1
ID                                       : 2
Format                                   : AC-3
Format/Info                              : Audio Coding 3
Codec ID                                 : A_AC3
Duration                                 : 2 h 3 min
Bit rate mode                            : Constant
Bit rate                                 : 448 kb/s
Channel(s)                               : 6 channels
Channel positions                        : Front: L C R, Side: L R, LFE
Sampling rate                            : 48.0 kHz
Frame rate                               : 31.250 FPS (1536 SPF)
Bit depth                                : 16 bits
Compression mode                         : Lossy
Stream size                              : 395 MiB (11%)
Title                                    : 5.1 @ 448 kbps - DUB, Blu-ray
Language                                 : Ukrainian
Service kind                             : Complete Main
Default                                  : Yes
Forced                                   : Yes

Audio #2
ID                                       : 3
Format                                   : AC-3
Format/Info                              : Audio Coding 3
Codec ID                                 : A_AC3
Duration                                 : 2 h 3 min
Bit rate mode                            : Constant
Bit rate                                 : 448 kb/s
Channel(s)                               : 6 channels
Channel positions                        : Front: L C R, Side: L R, LFE
Sampling rate                            : 48.0 kHz
Frame rate                               : 31.250 FPS (1536 SPF)
Bit depth                                : 16 bits
Compression mode                         : Lossy
Stream size                              : 395 MiB (11%)
Title                                    : 5.1 @ 448 kbps - Original
Language                                 : English
Service kind                             : Complete Main
Default                                  : No
Forced                                   : No

Text #1
ID                                       : 4
Format                                   : UTF-8
Codec ID                                 : S_TEXT/UTF8
Codec ID/Info                            : UTF-8 Plain Text
Duration                                 : 1 h 47 min
Bit rate                                 : 5 b/s
Count of elements                        : 167
Stream size                              : 4.49 KiB (0%)
Title                                    : forced
Language                                 : Ukrainian
Default                                  : Yes
Forced                                   : Yes

Text #2
ID                                       : 5
Format                                   : UTF-8
Codec ID                                 : S_TEXT/UTF8
Codec ID/Info                            : UTF-8 Plain Text
Duration                                 : 2 h 1 min
Bit rate                                 : 71 b/s
Count of elements                        : 1398
Stream size                              : 64.1 KiB (0%)
Title                                    : full
Language                                 : Ukrainian
Default                                  : No
Forced                                   : No

Text #3
ID                                       : 6
Format                                   : UTF-8
Codec ID                                 : S_TEXT/UTF8
Codec ID/Info                            : UTF-8 Plain Text
Duration                                 : 1 h 47 min
Bit rate                                 : 3 b/s
Count of elements                        : 169
Stream size                              : 2.51 KiB (0%)
Title                                    : Forced
Language                                 : English
Default                                  : No
Forced                                   : No

Text #4
ID                                       : 7
Format                                   : UTF-8
Codec ID                                 : S_TEXT/UTF8
Codec ID/Info                            : UTF-8 Plain Text
Duration                                 : 1 h 56 min
Bit rate                                 : 43 b/s
Count of elements                        : 1307
Stream size                              : 36.8 KiB (0%)
Title                                    : Full
Language                                 : English
Default                                  : No
Forced                                   : No

Text #5
ID                                       : 8
Format                                   : UTF-8
Codec ID                                 : S_TEXT/UTF8
Codec ID/Info                            : UTF-8 Plain Text
Duration                                 : 2 h 2 min
Bit rate                                 : 56 b/s
Count of elements                        : 1925
Stream size                              : 51.3 KiB (0%)
Title                                    : SDH
Language                                 : English
Default                                  : No
Forced                                   : No

Menu
00:00:00.000                             : en:00:00:00.000
00:06:24.467                             : en:00:06:24.467
00:12:54.774                             : en:00:12:54.774
00:18:32.987                             : en:00:18:32.987
00:23:45.591                             : en:00:23:45.591
00:29:39.653                             : en:00:29:39.653
00:35:29.836                             : en:00:35:29.836
00:39:30.535                             : en:00:39:30.535
00:42:42.435                             : en:00:42:42.435
00:48:34.036                             : en:00:48:34.036
00:52:26.935                             : en:00:52:26.935
00:57:30.197                             : en:00:57:30.197
01:01:52.542                             : en:01:01:52.542
01:07:35.551                             : en:01:07:35.551
01:12:13.496                             : en:01:12:13.496
01:17:50.791                             : en:01:17:50.791
01:21:17.122                             : en:01:21:17.122
01:26:05.911                             : en:01:26:05.911
01:32:48.480                             : en:01:32:48.480
01:37:18.750                             : en:01:37:18.750
01:43:24.115                             : en:01:43:24.115
01:46:06.610                             : en:01:46:06.610
01:50:31.667                             : en:01:50:31.667
01:58:34.858                             : en:01:58:34.858
Скріншоти

Джерело:
Особиста оцінка: 10 - без зайвих вагань рекомендую всім!


 Трекер:    Зареєстрований   

Завантажити / скачати фільм українською



відео для новачків



 Зареєстрований:   2018-09-10 12:18
 Розмір:   3.53 GB 
 Оцінка фільму:   6.3/10 (Голосів: 12)
   
Інші релізи
L . A 
Новенький


З нами з: 24.11.08
Востаннє: 13.10.18
Повідомлень: 4

2018-03-10 22:35  
Чудово! Зображення що треба і розмір файла клас! H.265 рулитьHappy
dimic 
Частий відвідувач


З нами з: 12.07.09
Востаннє: 09.12.18
Повідомлень: 33

2018-03-17 19:04  
igor302
дякую за роботу

HEVC це класно, але навіть для нього
Цитата:
~3202 кб/с
все ж замало, так ? Якість нагадує
igor302 
Свій


З нами з: 27.10.11
Востаннє: 15.11.18
Повідомлень: 108

2018-03-28 16:48  
dimic написано:
Якість нагадує

Тільки за бітрейтом, за якістю картинки ні!

dzvinochok 
Новенький


З нами з: 30.06.12
Востаннє: 20.11.18
Повідомлень: 9

2018-04-12 00:09  
Перепрошую, але в мене не програється англійська звукова доріжка. Пробував різні плеєри, але не допомогло. В чому може бути проблема?
igor911 
Відео Гуртом
Відео Гуртом


З нами з: 18.01.08
Востаннє: 10.12.18
Повідомлень: 11553

2018-04-12 07:54  
dzvinochok написано:
в мене не програється англійська звукова доріжка. Пробував різні плеєри, але не допомогло. В чому може бути проблема?

проблема в бракованому релізі
igor302 написано:

Аудио #2
Тривалість : 1 с. 835 мс.
Розмір потоку : 169 Кбайт (0%)

bot 
робот


З нами з: 30.09.07
Востаннє: 26.05.05
Повідомлень: 20324

2018-04-13 16:07  
Тему перенесено з Неоформлене відео до форуму Фільми в HD


11FrYkT

igor302 
Свій


З нами з: 27.10.11
Востаннє: 15.11.18
Повідомлень: 108

2018-09-10 12:19  
Замінив доріжку на кращу з Blu Ray.

Ваш часовий пояс: GMT + 2 Години

Нова тема   Відповісти