Зменшення / Downsizing (2017) 1080p Ukr/Eng | Sub Ukr/Eng

Нові коментарі

Нова тема   Відповісти
Автор Повідомлення
staf777 
Відео Гуртом - підтримка та поширення
Відео Гуртом - підтримка та поширення


З нами з: 16.11.16
Востаннє: 27.05.19
Повідомлень: 2386

2018-03-08 18:26  
Зменшення / Downsizing (2017) 1080p Ukr/Eng | Sub Ukr/Eng

Зменшення / Downsizing (2017) 1080p Ukr/Eng | Sub Ukr/Eng


Жанр: драма, комедія, фантастика
Країна: Норвегія, США



Кінокомпанія: Paramount Pictures, Ad Hominem Enterprises, Annapurna Pictures
Режисер: Александр Пейн
Актори: Метт Деймон, Крістоф Вальц, Хонг Чау, Крістен Віг, Рольф Лассгард, Удо Кір, Сорен Пільмарк, Джейн Годишелл, Джейсон Судейкіс

Сюжет:
Обмежений в коштах американець і його дружина вирішують, що жити в крихітному тілі буде легше і дешевше. Разом з натовпами добровольців вони направляються на процедуру зменшення. На жаль для чоловіка, в останню хвилину його дружина передумає...


Тривалість: 02:15:20
Якість: 1080p від ExKinoRay
Відео:
кодек:
розмір кадру: 1920x804
бітрейт: 15,8 Mб/с

Аудіо # 1:
мова: українська
переклад: професійний дубльований
кодек: 2.0
бітрейт: 192 кб/с

Аудіо # 2:
мова: англійська
переклад: оригінал
кодек: 5.1
бітрейт: 1509 кб/с

Субтитри: (Forced, Full)
мова: українська
тип: програмні (м'які)
формат: *.srt

Субтитри: (Full, SHD, SHD-Colored)
мова: англійська
тип: програмні (м'які)
формат: *.srt
Info
General
Unique ID : 201543091341711182942747437951636200558 (0x979FC997A13B76F1A8C7CBBF85A3DC6E)
Complete name : H:\» HD українською » Фільми в HD\Комедія\Downsizing (2017) 1080p [UKR_ENG] [Hurtom].
Format :
Format version : Version 4 / Version 2
File size : 16.5 GiB
Duration : 2 h 15 min
Overall bit rate : 17.5 Mb/s
Movie name : Downsizing (2017) 1080p [UKR_ENG] [Hurtom]
Encoded date : UTC 2018-04-13 20:20:48
Writing application : v9.8.0 ('Kuglblids') 64bit
Writing library : libebml v1.3.4 + v1.4.5
Cover : Yes
Attachments : cover.jpg

Video
ID : 1
Format : AVC
Format/Info : Advanced Video Codec
Format profile : [email protected]
Format settings : CABAC / 5 Ref Frames
Format settings, CABAC : Yes
Format settings, ReFrames : 5 frames
Codec ID : V_MPEG4/ISO/AVC
Duration : 2 h 15 min
Bit rate : 15.8 Mb/s
Width : 1 920 pixels
Height : 804 pixels
Display aspect ratio : 2.40:1
Frame rate mode : Constant
Frame rate : 23.976 (24000/1001) FPS
Color space : YUV
Chroma subsampling : 4:2:0
Bit depth : 8 bits
Scan type : Progressive
Bits/(Pixel*Frame) : 0.427
Stream size : 14.9 GiB (90%)
Writing library : core 155 r2867+74 66b5600 t_mod_Custom_2 [[email protected] X86_64]
Encoding settings : cabac=1 / ref=5 / deblock=1:-3:-3 / analyse=0x3:0x133 / me=umh / subme=10 / psy=1 / fade_compensate=0.00 / psy_rd=1.00:0.00 / mixed_ref=1 / me_range=32 / chroma_me=1 / trellis=2 / 8x8dct=1 / cqm=0 / deadzone=21,11 / fast_pskip=0 / chroma_qp_offset=-2 / threads=24 / lookahead_threads=6 / sliced_threads=0 / nr=0 / decimate=0 / interlaced=0 / bluray_compat=0 / constrained_intra=0 / fgo=0 / bframes=10 / b_pyramid=2 / b_adapt=2 / b_bias=0 / direct=3 / weightb=1 / open_gop=0 / weightp=2 / keyint=250 / keyint_min=23 / scenecut=40 / intra_refresh=0 / rc_lookahead=60 / rc=2pass / mbtree=0 / bitrate=15800 / ratetol=1.0 / qcomp=0.60 / qpmin=0:0:0 / qpmax=69:69:69 / qpstep=4 / cplxblur=20.0 / qblur=0.5 / vbv_maxrate=50000 / vbv_bufsize=62500 / nal_hrd=none / filler=0 / ip_ratio=1.30 / pb_ratio=1.20 / aq=3:0.80 / aq-sensitivity=10.00 / aq-factor=1.00:1.00:1.00 / aq2=0 / aq3=0
Language : English
Default : Yes
Forced : No

Audio #1
ID : 2
Format : AC-3
Format/Info : Audio Coding 3
Codec ID : A_AC3
Duration : 2 h 15 min
Bit rate mode : Constant
Bit rate : 192 kb/s
Channel(s) : 2 channels
Channel positions : Front: L R
Sampling rate : 48.0 kHz
Frame rate : 31.250 FPS (1536 SPF)
Bit depth : 16 bits
Compression mode : Lossy
Stream size : 186 MiB (1%)
Title : [UA-DUB]
Language : Ukrainian
Service kind : Complete Main
Default : Yes
Forced : Yes

Audio #2
ID : 3
Format :
Format/Info : Digital Theater Systems
Codec ID : A_DTS
Duration : 2 h 15 min
Bit rate mode : Constant
Bit rate : 1 509 kb/s
Channel(s) : 6 channels
Channel positions : Front: L C R, Side: L R, LFE
Sampling rate : 48.0 kHz
Frame rate : 93.750 FPS (512 SPF)
Bit depth : 24 bits
Compression mode : Lossy
Stream size : 1.43 GiB (9%)
Title : Original
Language : English
Default : No
Forced : No

Text #1
ID : 4
Format : UTF-8
Codec ID : S_TEXT/UTF8
Codec ID/Info : UTF-8 Plain Text
Duration : 2 h 14 min
Bit rate : 2 b/s
Count of elements : 41
Stream size : 2.04 KiB (0%)
Language : Ukrainian
Default : Yes
Forced : Yes

Text #2
ID : 5
Format : UTF-8
Codec ID : S_TEXT/UTF8
Codec ID/Info : UTF-8 Plain Text
Duration : 2 h 14 min
Bit rate : 90 b/s
Count of elements : 1762
Stream size : 89.4 KiB (0%)
Language : Ukrainian
Default : No
Forced : No

Text #3
ID : 6
Format : UTF-8
Codec ID : S_TEXT/UTF8
Codec ID/Info : UTF-8 Plain Text
Duration : 2 h 4 min
Bit rate : 58 b/s
Count of elements : 1633
Stream size : 53.5 KiB (0%)
Title : Full
Language : English
Default : No
Forced : No

Text #4
ID : 7
Format : UTF-8
Codec ID : S_TEXT/UTF8
Codec ID/Info : UTF-8 Plain Text
Duration : 2 h 7 min
Bit rate : 63 b/s
Count of elements : 1914
Stream size : 58.8 KiB (0%)
Title : SDH
Language : English
Default : No
Forced : No

Text #5
ID : 8
Format : UTF-8
Codec ID : S_TEXT/UTF8
Codec ID/Info : UTF-8 Plain Text
Duration : 2 h 7 min
Bit rate : 72 b/s
Count of elements : 1914
Stream size : 67.1 KiB (0%)
Title : SDH Colored
Language : English
Default : No
Forced : No

Menu
00:00:00.000 : en:00:00:00.000
00:06:13.540 : en:00:06:13.540
00:10:38.346 : en:00:10:38.346
00:16:24.483 : en:00:16:24.483
00:22:14.667 : en:00:22:14.667
00:30:23.905 : en:00:30:23.905
00:38:44.364 : en:00:38:44.364
00:42:38.598 : en:00:42:38.598
00:47:36.687 : en:00:47:36.687
00:55:08.722 : en:00:55:08.722
01:04:35.830 : en:01:04:35.830
01:13:11.596 : en:01:13:11.596
01:21:13.202 : en:01:21:13.202
01:28:00.775 : en:01:28:00.775
01:33:25.308 : en:01:33:25.308
01:41:42.513 : en:01:41:42.513
01:44:11.871 : en:01:44:11.871
01:51:54.374 : en:01:51:54.374
01:58:36.443 : en:01:58:36.443
02:08:58.856 : en:02:08:58.856
Скріншоти





За придбану доріжку подяка сайту uafilm.tv.
Джерело: &
Особиста оцінка: 0 - не дивився


 Трекер:    Зареєстрований   

Завантажити / скачати фільм українською



відео для новачків



 Зареєстрований:   2018-04-13 23:49
 Розмір:   16.54 GB 
 Оцінка фільму:   8.3/10 (Голосів: 26)
   
Інші релізи
   Зменшення / Downsizing (2017) 1080p H.265 Ukr/Eng | Sub Ukr/Eng igor302  5 / 0   6.82 GB   2018-04-14 03:55 
   Зменшення / Downsizing (2017) Ukr/Eng | Sub Ukr/Eng igor911  9 / 0   2.31 GB   2018-04-14 00:40 
   Зменшення / Downsizing (2017) Remux 1080p Ukr/Eng | Sub Ukr/Eng igor911  0 / 0   28.46 GB   2018-04-13 23:18 
   Зменшення / Downsizing (2017) igor911  10 / 0   1.46 GB   2018-04-13 23:05 
   Зменшення / Downsizing (2017) AVC Ukr/Eng | Sub Ukr/Eng 11FrYkT  11 / 0   2.69 GB   2018-04-13 22:54 
   Зменшення / Downsizing (2017) 720p Ukr/Eng | Sub Ukr/Eng 11FrYkT  4 / 0   5.16 GB   2018-04-13 22:53 
   Зменшення / Downsizing (2017) AVC Ukr/Eng | Sub Ukr/Eng uafilm.tv  10 / 0   1.58 GB   2018-04-13 21:34 
don pedro 
Попереджень: 2
Попереджень: 2 


З нами з: 29.06.11
Востаннє: 27.05.19
Повідомлень: 13672

2018-03-10 23:52  
Гарний фільм (хоч і цілком антинауковий). Для людей, які хочуть подивитись фантастику про живих людей і без бойовичка. Мабуть, тому й оцінки занижені: люди очікували побачити якусь дурнувату різанину і різний бруд, а тут соціально-екологічна фантастика та кохання. Дуже сподобались приколи довкола зменшення і роль і ролі Крістофа Вальца, Удо Кіра та Хонг Чау, такої маленької і суворої.
EduardGol 
Поважний учасник


З нами з: 03.10.13
Востаннє: 26.05.19
Повідомлень: 171

2018-04-02 19:35  
Вже зачекався! Happy
antony_kot 
Новенький


З нами з: 05.09.14
Востаннє: 24.05.19
Повідомлень: 2

2018-04-18 23:06  
Провайдер надіслав листа від Paramount Pictures із застереженням про роздачу цього фільму, і порекомендував видалити її!) Виявляється, живемо у цивілізованій країніHappy))
igor911 
Модератор відео


З нами з: 18.01.08
Востаннє: 27.05.19
Повідомлень: 12548

2018-04-18 23:30  
antony_kot, це "листи щастя" від dht-павуків правовласників, генеруються та розсилаються автоматично. Рекомендую вимкнути DHT у клієнті, щоб не потрапляти в такі халепи.
0mage0 
VIP


З нами з: 06.10.15
Востаннє: 24.05.19
Повідомлень: 465

2018-04-19 07:54  
Дивитися можна, але що далі, то менш цікавим стає кіно. Єдине, що витягує фільм, це в'єтнамська жінка, дуже прикольний персонаж.
В кінці, коли народ йшов до сховища тунелем, головний герой зауважив, що вони чомусь йдуть наверх. А потім, коли він думав, йти йому далі, чи повертатися, пішов врешті-решт наверх, але при цьому повернувся назад, хоча напрямок наверх то був шлях до сховища.

Drool 
VIP


З нами з: 17.04.10
Востаннє: 27.05.19
Повідомлень: 1515

2018-04-19 15:00  
igor911 написано:
це "листи щастя" від dht-павуків правовласників, генеруються та розсилаються автоматично. Рекомендую вимкнути DHT у клієнті, щоб не потрапляти в такі халепи.
І як DHT-павук взнав електронку чи куди він там прислав листа?
igor911 
Модератор відео


З нами з: 18.01.08
Востаннє: 27.05.19
Повідомлень: 12548

2018-04-19 16:22  
Drool написано:
І як DHT-павук взнав електронку чи куди він там прислав листа?

Це вже провайдер переслав скаргу бота, в якій містився лише айпішнік.

antony_kot 
Новенький


З нами з: 05.09.14
Востаннє: 24.05.19
Повідомлень: 2

2018-04-19 23:13  
igor911
Саме так, у мене біла IP-адреса у світ, тому провайдер легко визначив абонента.
Дякую за рекомендацію відключити DHT, я не знав, що це треба робити! І, мабуть, треба користуватись VPN)

igor911 
Модератор відео


З нами з: 18.01.08
Востаннє: 27.05.19
Повідомлень: 12548

2018-04-19 23:35  
antony_kot написано:
І, мабуть, треба користуватись VPN

Це найкращий варіант, особливо в країнах, де крім "листа щастя", приходить чималенький штраф.

madagaskar1 
VIP


З нами з: 08.05.14
Востаннє: 27.05.19
Повідомлень: 682

2018-04-20 14:31  
igor911
а якщо у мене Статичний IP, то треба вимикати той DHT, чи його треба вимикати обов'язково і як це по впливає на швидкість завантаження?

igor911 
Модератор відео


З нами з: 18.01.08
Востаннє: 27.05.19
Повідомлень: 12548

2018-04-20 14:59  
madagaskar1 написано:
а якщо у мене Статичний IP

неважливо, статичний чи динамічний ір, важливо "білий" він чи "сірий" та ставлення твого провайдера до таких листів від ботів правовласників - деякі відправляють їх в спам не читаючи, а деякі можуть навіть відключити користувача від інтернета.

Наскільки я розумію - ті боти шукають по оригінальній назві фільми своїх "підзахисних" правовласників по DHT, фіксуючи всі айпішніки учасників обміну, потім пробивають якому провайдеру належить айпішнік і розсилають стандартні листи на ел.адресу провайдерів, вказану у whois.

Тобто в такому випадку достатньо вимкнути DHT (та можливо PEX) у клієнті. На роздачах з малою к-тю пірів це може негативно позначитись на швидкості завантаження та збільшить час пошуку інших пірів.

У випадку, якщо програма-бот зареєструвала акаунт(-и) на нашому трекері і моніторить "підзахисні" роздачі, отримуючи список пірів через анонсер - вимкнення DHT не допоможе. Найнадійніший метод для анонімізації - використання VPN, коли ваш реальний айпішнік прихований.

madagaskar1 
VIP


З нами з: 08.05.14
Востаннє: 27.05.19
Повідомлень: 682

2018-04-20 15:08  
igor911
дякую за широке пояснення.

Drool 
VIP


З нами з: 17.04.10
Востаннє: 27.05.19
Повідомлень: 1515

2018-04-20 20:44  
Люди, ви хоч трішки поцікавтесь, що таке DHT і що таке IP. Вимикайте його хоч донестями, ваш ІР нікуди не дінеться. Дитячий сад, їй богу.
Ваш часовий пояс: GMT + 2 Години

Нова тема   Відповісти