Реквієм по мрії (Реквієм за мрією) [Режисерська версія] / Requiem for a Dream [Director's Cut] (2000) Remux 1080p Ukr/Eng | Sub Eng

Нові коментарі

Нова тема   Відповісти
Автор Повідомлення
staf777 
Відео Гуртом - підтримка та поширення
Відео Гуртом - підтримка та поширення


З нами з: 16.11.16
Востаннє: 22.09.20
Повідомлень: 4028

2018-03-08 17:38  
Реквієм по мрії (Реквієм за мрією) [Режисерська версія] / Requiem for a Dream [Director's Cut] (2000) Remux 1080p Ukr/Eng | Sub Eng

Реквієм по мрії (Реквієм за мрією) [Режисерська версія] / Requiem for a Dream [Director's Cut] (2000) Remux 1080p Ukr/Eng | Sub Eng


Жанр: драма
Країна: США



Кінокомпанія: Artisan Entertainment, Thousand Words, Sibling Productions
Режисер: Даррен Аронофскі / Darren Aronofsky
Актори: Еллен Бьорстін / Ellen Burstyn, Джаред Лето / Jared Leto, Дженіфер Конеллі / Jennifer Connelly, Марлон Ваянс / Marlon Wayans та інші.

Сюжет:
Головні герої - мати і син, Сара і Гарі Голдфарб, подружка Гарі Меріон Сільвер і друг Гарі Тайрон Лав. Дія у фільмі розвертається впродовж трьох пір року: влітку, восени і взимку. Протягом цього часу життя чотирьох героїв нестримно і жорстоко рушаться.


рейтинг MPAA: NC-17 - особи до 17 років не допускаються до перегляду
Вікова категорія: 18+

Тривалість: 01:41:25 [Режисерська версія - Director's Cut (Unrated)] - порівняння з Edited (R-rated) версією
Якість: Remux 1080p
Відео:
кодек:
розмір кадру: 1920x1080
бітрейт: 34,9 Mб/с

Аудіо # 1:
мова: українська
переклад: двоголосий закадровий
кодек: 5.1
бітрейт: 384 кб/с

Аудіо # 2:
мова: англійська
переклад: оригінал
кодек: -HD MA 7.1
бітрейт: 4696 кб/с

Аудіо # 3:
мова: англійська
переклад: коментарі режисера
кодек: 2.0
бітрейт: 224 кб/с

Аудіо # 4:
мова: англійська
переклад: коментарі оператора
кодек: 2.0
бітрейт: 224 кб/с

Субтитри:
мова: англійська
тип: програмні (м'які)
формат: *.srt
Info
General
Unique ID : 225901771591199686913053348052429040351 (0xA9F319407496B3CBB9D6DFCC6DE1EADF)
Complete name : H:\» HD українською » Фільми в HD\Драма\Requiem for a Dream [Director's Cut] (2000) Remux 1080p [Ukr Eng][Sub Eng][Hurtom].
Format :
Format version : Version 4 / Version 2
File size : 28.7 GiB
Duration : 1 h 41 min
Overall bit rate mode : Variable
Overall bit rate : 40.5 Mb/s
Movie name : Requiem for a Dream [Director's Cut] (2000) Remux 1080p [Ukr Eng][Sub Eng][Hurtom]
Encoded date : UTC 2018-03-09 19:07:31
Writing application : v9.8.0 ('Kuglblids') 64bit
Writing library : libebml v1.3.4 + v1.4.5

Video
ID : 1
Format : AVC
Format/Info : Advanced Video Codec
Format profile : [email protected]
Format settings, CABAC : Yes
Format settings, ReFrames : 4 frames
Format settings, GOP : M=3, N=12
Codec ID : V_MPEG4/ISO/AVC
Duration : 1 h 41 min
Bit rate mode : Variable
Bit rate : 34.9 Mb/s
Maximum bit rate : 37.0 Mb/s
Width : 1 920 pixels
Height : 1 080 pixels
Display aspect ratio : 16:9
Frame rate mode : Constant
Frame rate : 23.976 (24000/1001) FPS
Color space : YUV
Chroma subsampling : 4:2:0
Bit depth : 8 bits
Scan type : Progressive
Bits/(Pixel*Frame) : 0.703
Stream size : 24.8 GiB (86%)
Language : English
Default : Yes
Forced : No
Color range : Limited
Color primaries : BT.709
Transfer characteristics : BT.709
Matrix coefficients : BT.709

Audio #1
ID : 2
Format : AC-3
Format/Info : Audio Coding 3
Mode extension : CM (complete main)
Format settings, Endianness : Big
Codec ID : A_AC3
Duration : 1 h 41 min
Bit rate mode : Constant
Bit rate : 384 kb/s
Channel(s) : 6 channels
Channel positions : Front: L C R, Side: L R, LFE
Sampling rate : 48.0 kHz
Frame rate : 31.250 FPS (1536 spf)
Bit depth : 16 bits
Compression mode : Lossy
Stream size : 279 MiB (1%)
Title : [UA-DVO]
Language : Ukrainian
Default : Yes
Forced : Yes

Audio #2
ID : 3
Format :
Format/Info : Digital Theater Systems
Format profile : MA / Core
Mode : 16
Format settings, Endianness : Big
Codec ID : A_DTS
Duration : 1 h 41 min
Bit rate mode : Variable / Constant
Bit rate : 4 696 kb/s / 1 509 kb/s
Channel(s) : 8 channels / 6 channels
Channel positions : Front: L C R, Side: L R, Back: L R, LFE / Front: L C R, Side: L R, LFE
Sampling rate : 48.0 kHz
Frame rate : 93.750 FPS (512 spf)
Bit depth : 24 bits
Compression mode : Lossless / Lossy
Stream size : 3.33 GiB (12%)
Title : -HD Master Audio 7.1 4696 kbps Lossless
Language : English
Default : No
Forced : No

Audio #3
ID : 4
Format : AC-3
Format/Info : Audio Coding 3
Format profile : Dolby Digital
Mode extension : CM (complete main)
Format settings, Endianness : Big
Codec ID : A_AC3
Duration : 1 h 41 min
Bit rate mode : Constant
Bit rate : 224 kb/s
Channel(s) : 2 channels
Channel positions : Front: L R
Sampling rate : 48.0 kHz
Frame rate : 31.250 FPS (1536 spf)
Bit depth : 16 bits
Compression mode : Lossy
Stream size : 163 MiB (1%)
Title : Commentary by Director 2.0 224 kbps
Language : English
Default : No
Forced : No

Audio #4
ID : 5
Format : AC-3
Format/Info : Audio Coding 3
Format profile : Dolby Digital
Mode extension : CM (complete main)
Format settings, Endianness : Big
Codec ID : A_AC3
Duration : 1 h 41 min
Bit rate mode : Constant
Bit rate : 224 kb/s
Channel(s) : 2 channels
Channel positions : Front: L R
Sampling rate : 48.0 kHz
Frame rate : 31.250 FPS (1536 spf)
Bit depth : 16 bits
Compression mode : Lossy
Stream size : 163 MiB (1%)
Title : Commentary by Director of Photography 2.0 224 kbps
Language : English
Default : No
Forced : No

Text
ID : 6
Format : UTF-8
Codec ID : S_TEXT/UTF8
Codec ID/Info : UTF-8 Plain Text
Duration : 1 h 36 min
Bit rate : 55 b/s
Count of elements : 1143
Stream size : 39.3 KiB (0%)
Language : English
Default : No
Forced : No

Menu
00:00:00.000 : en:00:00:00.000
00:00:00.792 : en:00:00:00.792
00:00:30.572 : en:00:00:30.572
00:05:32.207 : en:00:05:32.207
00:09:08.423 : en:00:09:08.423
00:14:02.675 : en:00:14:02.675
00:19:02.850 : en:00:19:02.850
00:23:36.832 : en:00:23:36.832
00:27:35.112 : en:00:27:35.112
00:29:48.745 : en:00:29:48.745
00:32:48.758 : en:00:32:48.758
00:37:18.695 : en:00:37:18.695
00:49:26.005 : en:00:49:26.005
00:56:26.425 : en:00:56:26.425
01:06:07.213 : en:01:06:07.213
01:13:25.985 : en:01:13:25.985
01:21:03.025 : en:01:21:03.025
01:29:19.354 : en:01:29:19.354
Скріншоти





Подяка:
Пану MAKAPOHHIK за надану сиру доріжку, пану robotron005 за синхронізацію
та пану bilenkuyboy за українізований постер.
Джерело: &
Особиста оцінка: 0 - не дивився


Золотий реліз (завантажене не впливає на рейтинг)
 Трекер:    Зареєстрований   

Завантажити / скачати фільм українською



відео для новачків



 Зареєстрований:   2018-03-10 12:29
 Розмір:   28.67 GB 
 Оцінка фільму:   8.8/10 (Голосів: 18)
   
bot 
робот


З нами з: 30.09.07
Востаннє: 26.05.05
Повідомлень: 25570

2018-03-08 17:40  
Тему перенесено з Фільми в HD до форуму Анонси релізів


staf777

rudder1992 
Поважний учасник


З нами з: 26.02.17
Востаннє: 22.09.20
Повідомлень: 182

2018-03-09 17:54  
Гівно рідкісне!
Влад Гук 
Частий відвідувач


З нами з: 06.07.13
Востаннє: 18.07.20
Повідомлень: 44

2018-03-09 18:22  
rudder1992
Ну я б на вашому місці так голосно про свою дурість не кричав) Я розумію, що в кожного свої смаки і тд, але так обізвати одну з найкращих робіт Аронофскі, яка у свій час вразила багатьох людей і не перестає вражати як мінімум не дуже розумно... Мені цікаво, а ви взагалі фільм бачили? Чи просто передивилися бойовичків з Стівеном Сіґалом і тепер нормальне кіно не сприймаєте?

bot 
робот


З нами з: 30.09.07
Востаннє: 26.05.05
Повідомлень: 25570

2018-03-10 12:28  
Тему перенесено з Анонси релізів до форуму Фільми в HD


staf777

OL3X 
VIP


З нами з: 25.11.15
Востаннє: 20.09.20
Повідомлень: 458

2018-03-10 16:06  
Чудовий фільм. Всім рекомендую хто ще не бачив.
daVisla 
VIP


З нами з: 24.11.09
Востаннє: 19.09.20
Повідомлень: 262

2018-03-10 16:13  
rudder1992 написано:
Гівно рідкісне!

Wide grin Wide grin Wide grin Wide grin

Mishir 
Новенький


З нами з: 06.11.17
Востаннє: 12.05.20
Повідомлень: 5

2018-03-10 17:39  
Дякую!
Bandersnatch 
Новенький


З нами з: 30.05.14
Востаннє: 24.08.20
Повідомлень: 5

2018-03-12 01:57  
rudder1992
Згоден, як і Сікстинська капела, або "Пори року" Вівальді.

mutomba 
VIP


З нами з: 20.10.13
Востаннє: 22.09.20
Повідомлень: 361

2018-03-13 18:46  
OL3X написано:
Чудовий фільм. Всім рекомендую хто ще не бачив.

Гарне, але як на мене, важке кіно.

Треба молоді показувати як освітній фільм, а то куди не подивишься - срані нарики/бариги розмальовують стіни своєю рекламою шишок та іншої зарази...

alexus255 
Новенький


З нами з: 06.04.17
Востаннє: 31.07.20
Повідомлень: 11

2018-03-14 18:17  
Підтримую. Як тільки передивився в ті роки - відразу подумалось, що фільм обовьязковий до показу в 9-11 класах. Можна викинути якусь нуднувату книжку і урок літератури провести з реальною користю. Недавно передивлявся і не змінив свою думку - старшим класам показувати і писати по ньому твори і контрольні.
tru13 
Новенький


З нами з: 01.01.17
Востаннє: 16.09.20
Повідомлень: 2

2018-03-17 00:35  
mutomba написано:
Гарне, але як на мене, важке кіно.

Згоден, саме такі фільми залишають надовго чіткий слід у пам'яті. Звісно, потрібно й відпочивати на блокбастерах, та вони так не розбурхують мозок. Я якось давно подивився цей фільм та The wall від Pink Floyd на вихідних і потім тиждень ходив як зачарований.

Lesak 
Новенький


З нами з: 20.09.18
Востаннє: 22.07.20
Повідомлень: 6

2020-04-20 22:05  
Дякую!
Willox 
Новенький


З нами з: 09.07.19
Востаннє: 21.09.20
Повідомлень: 19

2020-04-21 23:33  
Чудовий фільм, пройшло уже 20 років, а він все ще надзвичайно актуальний. Рекомендую до перегляду усім, хто вагається.
Дякую автору за роздачу!

[Captain] 
Попереджень: 1
Попереджень: 1 


З нами з: 19.02.12
Востаннє: 22.09.20
Повідомлень: 2330

2020-05-05 23:01  
Фільм неймовірний.
І, до речі, сцени, де персонажі в стані наркотичного сп'яніння, дуже передають справжні відчуття в такому стані. Передано набагато більш правдоподібно, ніж у сучасних фільмах

Додано через 6 хвилин 35 секунд:

Хоча закінчення трохи не ясно. Герой Джареда Лето звернувся до лікарні, а вони повідомили поліцію? А лікарська таємниця?

І чому електротерапія щодо наркоманів — таке справді можливо було в США?

Ваш часовий пояс: GMT + 2 Години

Нова тема   Відповісти