Куб. Зеро (Куб. Нуль, Куб 3) / Cube Zero (2004) 1080p Ukr/Eng | Sub Eng

Нові коментарі

Нова тема   Відповісти
Автор Повідомлення
boroznaya 
Попереджень: 1
Попереджень: 1 


З нами з: 02.11.12
Востаннє: 01.10.20
Повідомлень: 2938

2018-03-07 18:30  
Куб. Зеро (Куб. Нуль, Куб 3) / Cube Zero (2004) 1080p Ukr/Eng | Sub Eng

Куб. Зеро (Куб. Нуль, Куб 3) / Cube Zero (2004) 1080p Ukr/Eng | Sub Eng


"Будь-яке жахіття має початок"


Жанр: фантастика, жахи, трилер
Країна: Канада



Кінокомпанія: Ghost Logic, Lions Gate Films Inc.
Режисер: Ерні Барбараш
Актори: Захарі Беннетт, Девід Хубанд, Стефані Мур, Мартін Роач, Террі Хоукс, Річард МакМіллан, Майк Наганд, Тоні Манч, Майкл Райлі, Джошуа Піс

Сюжет:
Приквел культового философсько-фантастичного фільму «Куб»! Молодий чоловік, чиї обов'язки полягають у нагляданні за Кубом - жахливим винаходом людства, помічає невинну жінку, яка попала в пастку однієї з кімнат куба і, вирішує спробувати врятуватися, не дивлячись на небезпеку, очікуючу її на шляху...


Тривалість: 1:37:31
Якість: 1080p

Відео:
кодек:
розмір кадру: 1920x1080
бітрейт: 8184 кб/с

Аудіо # 1:
мова: українська
переклад: двоголосий закадровий
кодек: 5.1
бітрейт: 384 кб/с

Аудіо # 2:
мова: англійська
переклад: оригінал
кодек: 5.1
бітрейт: 1510 кб/с

Субтитри:
мова: англійська
тип: програмні (м'які)
формат: *.srt
Info
D:\Завантаження\Cube Zero (2004) [Ukr, Eng, sub. Eng] 1080p [Hurtom].
General
Unique ID : 227320582626115357539705504571965858620 (0xAB045A095F753DECA97ED3C89F1C633C)
Complete name : D:\Завантаження\Cube Zero (2004) [Ukr, Eng, sub. Eng] 1080p [Hurtom].
Format :
Format version : Version 4 / Version 2
File size : 7.00 GiB
Duration : 1h 37mn
Overall bit rate : 10.3 Mbps
Encoded date : UTC 2018-03-07 15:08:47
Writing application : v20.0.0 ('I Am The Sun') 64-bit
Writing library : libebml v1.3.5 + v1.4.8
DURATION : 01:37:29.824000000
NUMBER_OF_FRAMES : 182807
NUMBER_OF_BYTES : 280791552
_STATISTICS_WRITING_APP : v20.0.0 ('I Am The Sun') 64-bit
_STATISTICS_WRITING_DATE_UTC : 2018-03-07 15:08:47
_STATISTICS_TAGS : BPS DURATION NUMBER_OF_FRAMES NUMBER_OF_BYTES

Video #1
ID : 1
Format : AVC
Format/Info : Advanced Video Codec
Format profile : [email protected]
Format settings, CABAC : Yes
Format settings, ReFrames : 4 frames
Codec ID : V_MPEG4/ISO/AVC
Duration : 1h 37mn
Bit rate : 8 184 Kbps
Width : 1 920 pixels
Height : 1 080 pixels
Display aspect ratio : 16:9
Frame rate : 23.976 fps
Color space : YUV
Chroma subsampling : 4:2:0
Bit depth : 8 bits
Scan type : Progressive
Bits/(Pixel*Frame) : 0.165
Stream size : 5.57 GiB (80%)
Writing library : core 130 r2273 b3065e6
Encoding settings : cabac=1 / ref=4 / deblock=1:0:0 / analyse=0x3:0x113 / me=umh / subme=7 / psy=1 / psy_rd=1.00:0.00 / mixed_ref=1 / me_range=16 / chroma_me=1 / trellis=1 / 8x8dct=1 / cqm=0 / deadzone=21,11 / fast_pskip=0 / chroma_qp_offset=-2 / threads=12 / lookahead_threads=2 / sliced_threads=0 / nr=0 / decimate=1 / interlaced=0 / bluray_compat=0 / constrained_intra=0 / bframes=3 / b_pyramid=2 / b_adapt=1 / b_bias=0 / direct=1 / weightb=1 / open_gop=0 / weightp=2 / keyint=250 / keyint_min=23 / scenecut=40 / intra_refresh=0 / rc_lookahead=40 / rc=crf / mbtree=1 / crf=20.0 / qcomp=0.60 / qpmin=0 / qpmax=69 / qpstep=4 / ip_ratio=1.40 / aq=1:1.00
Language : German
Default : No
Forced : No
DURATION : 01:37:31.091000000
NUMBER_OF_FRAMES : 140286
NUMBER_OF_BYTES : 6134230435
_STATISTICS_WRITING_APP : v20.0.0 ('I Am The Sun') 64-bit
_STATISTICS_WRITING_DATE_UTC : 2018-03-07 15:08:47
_STATISTICS_TAGS : BPS DURATION NUMBER_OF_FRAMES NUMBER_OF_BYTES

Audio #2
ID : 2
Format : AC-3
Format/Info : Audio Coding 3
Mode extension : CM (complete main)
Codec ID : A_AC3
Duration : 1h 37mn
Bit rate mode : Constant
Bit rate : 384 Kbps
Channel(s) : 6 channels
Channel positions : Front: L C R, Side: L R, LFE
Sampling rate : 48.0 KHz
Bit depth : 16 bits
Compression mode : Lossy
Stream size : 268 MiB (4%)
Title : 2+2
Language : Ukrainian
Default : Yes
Forced : No

Audio #3
ID : 3
Format :
Format/Info : Digital Theater Systems
Codec ID : A_DTS
Duration : 1h 37mn
Bit rate mode : Constant
Bit rate : 1 510 Kbps
Channel(s) : 6 channels
Channel positions : Front: L C R, Side: L R, LFE
Sampling rate : 48.0 KHz
Bit depth : 16 bits
Compression mode : Lossy
Stream size : 1.03 GiB (15%)
Title : English
Language : English
Default : No
Forced : No

Text #4
ID : 4
Format : UTF-8
Codec ID : S_TEXT/UTF8
Codec ID/Info : UTF-8 Plain Text
Title : Full
Language : English
Default : No
Forced : No
Скріншоти









Велика дяка панам: gig_Panas та karvai0 за звукозапис з ТБ

Джерело:
Особиста оцінка: 8 - мені сподобалося



Срібний реліз (на рейтинг впливає 50% завантаженого)
 Трекер:    Зареєстрований   

Завантажити / скачати фільм українською



відео для новачків



 Зареєстрований:   2018-03-08 15:37
 Розмір:   7 GB 
 Оцінка фільму:   8.1/10 (Голосів: 14)
   
bot 
робот


З нами з: 30.09.07
Востаннє: 26.05.05
Повідомлень: 25680

2018-03-08 15:32  
Тему перенесено з Анонси релізів до форуму Фільми в HD


boroznaya

boroznaya 
Попереджень: 1
Попереджень: 1 


З нами з: 02.11.12
Востаннє: 01.10.20
Повідомлень: 2938

2018-03-08 15:42  
Фільм на роздачі! Всім приємного перегляду!
mr. blef 
Частий відвідувач


З нами з: 26.02.18
Востаннє: 26.09.20
Повідомлень: 47

2018-03-08 18:04  
Фільм вантажити не буду, так, як знаю майже на пам'ять всю трилогію про Куби, але низький уклін релізеру та свою подяку за прекрасну роботу висловлюю щиро! Шкода, що завантажено фільм 4-ма користувачами, а з подяк лише одна - моя. Бачу, наскільки люди цінують важку працю інших людей. Без образ.
lastbreath 
Свій


З нами з: 02.12.15
Востаннє: 27.09.20
Повідомлень: 55

2018-03-08 19:11  
третя частина - шняга. Перша - найкраща!
R_N 
Новенький


З нами з: 03.01.17
Востаннє: 30.09.20
Повідомлень: 5

2019-05-04 20:29  
lastbreath
Аж ніяк не погоджусь! Всі частини тримають в напруженні. Десь прочитав, що "Куб Зеро" можна вважати початком трилогії, щось в кінці є таке, з чого починається перший Куб. Якщо взяти до уваги вигляд переходів між комірками, то дійсно - перший і третій Куб мають вигляд "одного поля ягоди", на відміну від Гіперкуба. Після багатьох років (мабуть років з 10 пройшло) беруся за перегляд трилогії власне з "Куб Зеро".

Ваш часовий пояс: GMT + 2 Години

Нова тема   Відповісти