Надто крута для тебе / She's Out of My League (2010) Remux 1080p Ukr/Eng | Sub Ukr/Eng

Нові коментарі

Нова тема   Відповісти
Автор Повідомлення
staf777 
Відео Гуртом - підтримка та поширення
Відео Гуртом - підтримка та поширення


З нами з: 16.11.16
Востаннє: 19.08.19
Повідомлень: 2710

2018-03-07 15:55  
Надто крута для тебе / She's Out of My League (2010) Remux 1080p Ukr/Eng | Sub Ukr/Eng

Надто крута для тебе / She's Out of My League (2010) Remux 1080p Ukr/Eng | Sub Ukr/Eng


Жанр: романтична комедія
Країна: США



Кінокомпанія: DreamWorks SKG, Mosaic Media Group; мейджор – Universal Pictures International (UPI)
Режисер: Джим Філд Сміт
Актори: Джей Барушель, Еліс Ів, Майк Воґель, Нейт Торренс, Ліндсей Слоун

Сюжет:
Офіцер транспортної охорони аеропорту Кірк - людина, що не чекає багато від життя та й взагалі доволі нерішучий чоловік. Його навіть подружка кинула, хоча саме вона з нього знущалась весь час їх знайомства. І ось одного разу він зустрічає ідеал жінки - Моллі. Та чи зможе він її завоювати, здолавши в першу чергу свою нерішучість і залежність від порад рідних і близьких, які лише погіршують становище?


Тривалість: 01:44:32
Якість: Remux 1080p
Відео:
кодек:
розмір кадру: 1920x1080
бітрейт: 34.0 Mб/с

Аудіо # 1:
мова: українська
переклад: професійний дубльований
кодек: 5.1
бітрейт: 448 кб/с

Аудіо # 2:
мова: англійська
переклад: оригінал
кодек: -HD MA 5.1
бітрейт: 4332 кб/с

Субтитри:
мова: українська
тип: пререндерні
формат: *.pgs

Субтитри:
мова: англійська
тип: пререндерні
формат: *.pgs
Info
General
Unique ID : 216377004399105679875897572882961826758 (0xA2C8B1F8F2D96671999C1CEE4F2283C6)
Complete name : H:\Майбутні релізи\She's_Out_of_My_League_2010_BDRemux\BDMV\STREAM\She's Out of My League (2010) Remux 1080p [Ukr][Eng][Sub Ukr,Eng][Hurtom].
Format :
Format version : Version 4 / Version 2
File size : 28.3 GiB
Duration : 1 h 44 min
Overall bit rate mode : Variable
Overall bit rate : 38.8 Mb/s
Movie name : She's Out of My League (2010) Remux 1080p [Ukr][Eng][Sub Ukr,Eng][Hurtom]
Encoded date : UTC 2018-03-09 10:42:07
Writing application : v9.8.0 ('Kuglblids') 64bit
Writing library : libebml v1.3.4 + v1.4.5

Video
ID : 1
Format : AVC
Format/Info : Advanced Video Codec
Format profile : [email protected]
Format settings, CABAC : Yes
Format settings, ReFrames : 4 frames
Codec ID : V_MPEG4/ISO/AVC
Duration : 1 h 44 min
Bit rate mode : Variable
Bit rate : 34.0 Mb/s
Maximum bit rate : 36.0 Mb/s
Width : 1 920 pixels
Height : 1 080 pixels
Display aspect ratio : 16:9
Frame rate mode : Constant
Frame rate : 23.976 (24000/1001) FPS
Color space : YUV
Chroma subsampling : 4:2:0
Bit depth : 8 bits
Scan type : Progressive
Bits/(Pixel*Frame) : 0.683
Stream size : 24.8 GiB (88%)
Default : Yes
Forced : No
Color range : Limited
Color primaries : BT.709
Transfer characteristics : BT.709
Matrix coefficients : BT.709

Audio #1
ID : 2
Format : AC-3
Format/Info : Audio Coding 3
Mode extension : CM (complete main)
Format settings, Endianness : Big
Codec ID : A_AC3
Duration : 1 h 44 min
Bit rate mode : Constant
Bit rate : 448 kb/s
Channel(s) : 6 channels
Channel positions : Front: L C R, Side: L R, LFE
Sampling rate : 48.0 kHz
Frame rate : 31.250 FPS (1536 spf)
Bit depth : 16 bits
Compression mode : Lossy
Stream size : 335 MiB (1%)
Title : [UA-DUB]
Language : Ukrainian
Default : Yes
Forced : Yes

Audio #2
ID : 3
Format :
Format/Info : Digital Theater Systems
Format profile : MA / Core
Mode : 16
Format settings, Endianness : Big
Codec ID : A_DTS
Duration : 1 h 44 min
Bit rate mode : Variable / Constant
Bit rate : 4 332 kb/s / 1 509 kb/s
Channel(s) : 6 channels
Channel positions : Front: L C R, Side: L R, LFE
Sampling rate : 48.0 kHz
Frame rate : 93.750 FPS (512 spf)
Bit depth : 24 bits
Compression mode : Lossless / Lossy
Stream size : 3.16 GiB (11%)
Language : English
Default : No
Forced : No

Text #1
ID : 4
Format : PGS
Muxing mode : zlib
Codec ID : S_HDMV/PGS
Codec ID/Info : Picture based subtitle format used on BDs/HD-DVDs
Duration : 1 h 39 min
Bit rate : 8 495 b/s
Count of elements : 3180
Stream size : 6.05 MiB (0%)
Language : Ukrainian
Default : No
Forced : No

Text #2
ID : 5
Format : PGS
Muxing mode : zlib
Codec ID : S_HDMV/PGS
Codec ID/Info : Picture based subtitle format used on BDs/HD-DVDs
Duration : 1 h 38 min
Bit rate : 9 095 b/s
Count of elements : 3132
Stream size : 6.43 MiB (0%)
Language : English
Default : No
Forced : No
Скріншоти




Джерело: &
Особиста оцінка: 8 - мені сподобалося


Золотий реліз (завантажене не впливає на рейтинг)
 Трекер:    Зареєстрований   

Завантажити / скачати фільм українською



відео для новачків



 Зареєстрований:   2018-03-09 17:15
 Розмір:   28.3 GB 
 Оцінка фільму:   8.4/10 (Голосів: 5)
   
bot 
робот


З нами з: 30.09.07
Востаннє: 26.05.05
Повідомлень: 21780

2018-03-09 17:14  
Тему перенесено з Анонси релізів до форуму Фільми в HD


staf777

Ваш часовий пояс: GMT + 2 Години

Нова тема   Відповісти