Отже, війна / This Means War (2012) UNRATED 1080р Ukr/Eng | Sub Ukr/Eng

Нові коментарі

Нова тема   Відповісти
Автор Повідомлення
staf777 
Відео Гуртом - підтримка та поширення
Відео Гуртом - підтримка та поширення


З нами з: 16.11.16
Востаннє: 30.09.20
Повідомлень: 4077

2018-03-07 15:41  
Отже, війна / This Means War (2012) UNRATED 1080р Ukr/Eng | Sub Ukr/Eng

Отже, війна / This Means War (2012) UNRATED 1080р Ukr/Eng | Sub Ukr/Eng


Жанр: екшн, комедія, романтичний
Країна: США



Кінокомпанія: Overbrook Entertainment, Robert Simonds Company, The, Robert Simonds Productions
Режисер: Джозеф МакДжинті Найкол
Актори: Том Харді, Кріс Пайн, Різ Візерспун, Тіль Швайгер

Сюжет:

Два секретні агенти, які до того ж і щирі друзі, закохуються в одну і ту ж саму жінку, але жоден не бажає поступитися іншому.


Тривалість: 01:44:00
Якість: 1080р
Відео:
кодек:
розмір кадру: 1920x800
бітрейт: 15.5 Mб/с

Аудіо # 1:
мова: українська
переклад: професійний дубльований
кодек: 5.1
бітрейт: 448 кб/с

Аудіо # 2:
мова: англійська
переклад: оригінал
кодек: 5.1
бітрейт: 1509 кб/с

Субтитри # 1:
мова: українська
тип: програмні (м'які)
формат: *.srt

Субтитри # 2-3:[Forced, Full]
мова: англійська
тип: програмні (м'які)
формат: *.srt
Info
General
Unique ID : 172247124135335351125720198951224281969 (0x819596E4461C17D794CFDF175F890B71)
Complete name : H:\This Means War (2012) UNRATED 1080р [Ukr][Eng][Sub Ukr,Eng][Hurtom].
Format :
Format version : Version 4 / Version 2
File size : 12.7 GiB
Duration : 1 h 44 min
Overall bit rate : 17.5 Mb/s
Movie name : This Means War (2012) UNRATED 1080р [Ukr][Eng][Sub Ukr,Eng][Hurtom]
Encoded date : UTC 2018-03-07 15:53:11
Writing application : v9.8.0 ('Kuglblids') 64bit
Writing library : libebml v1.3.4 + v1.4.5

Video
ID : 1
Format : AVC
Format/Info : Advanced Video Codec
Format profile : [email protected]
Format settings, CABAC : Yes
Format settings, ReFrames : 5 frames
Codec ID : V_MPEG4/ISO/AVC
Duration : 1 h 44 min
Bit rate : 15.5 Mb/s
Width : 1 920 pixels
Height : 800 pixels
Display aspect ratio : 2.40:1
Frame rate mode : Constant
Frame rate : 23.976 (24000/1001) FPS
Color space : YUV
Chroma subsampling : 4:2:0
Bit depth : 8 bits
Scan type : Progressive
Bits/(Pixel*Frame) : 0.421
Stream size : 11.3 GiB (89%)
Writing library : core 124 r2197kMod 69a0443
Encoding settings : cabac=1 / ref=5 / deblock=1:-3:-3 / analyse=0x3:0x113 / me=umh / subme=11 / psy=1 / fade_compensate=0.00 / psy_rd=1.20:0.00 / mixed_ref=1 / me_range=16 / chroma_me=1 / trellis=2 / 8x8dct=1 / cqm=0 / deadzone=21,11 / fast_pskip=0 / chroma_qp_offset=-2 / threads=6 / sliced_threads=0 / nr=0 / decimate=0 / interlaced=0 / bluray_compat=0 / constrained_intra=0 / bframes=8 / b_pyramid=2 / b_adapt=2 / b_bias=0 / direct=3 / weightb=1 / open_gop=0 / weightp=2 / keyint=250 / keyint_min=23 / scenecut=40 / intra_refresh=0 / rc=crf / mbtree=0 / crf=19.0000 / qcomp=0.60 / qpmin=0 / qpmax=69 / qpstep=4 / ip_ratio=1.30 / pb_ratio=1.20 / aq=1:0.55
Language : English
Default : Yes
Forced : No

Audio #1
ID : 2
Format : AC-3
Format/Info : Audio Coding 3
Mode extension : CM (complete main)
Format settings, Endianness : Big
Codec ID : A_AC3
Duration : 1 h 44 min
Bit rate mode : Constant
Bit rate : 448 kb/s
Channel(s) : 6 channels
Channel positions : Front: L C R, Side: L R, LFE
Sampling rate : 48.0 kHz
Frame rate : 31.250 FPS (1536 spf)
Bit depth : 16 bits
Compression mode : Lossy
Stream size : 333 MiB (3%)
Title : [ua-dub]
Language : Ukrainian
Default : Yes
Forced : Yes

Audio #2
ID : 3
Format :
Format/Info : Digital Theater Systems
Mode : 16
Format settings, Endianness : Big
Codec ID : A_DTS
Duration : 1 h 44 min
Bit rate mode : Constant
Bit rate : 1 509 kb/s
Channel(s) : 6 channels
Channel positions : Front: L C R, Side: L R, LFE
Sampling rate : 48.0 kHz
Frame rate : 93.750 FPS (512 spf)
Bit depth : 24 bits
Compression mode : Lossy
Stream size : 1.10 GiB (9%)
Language : English
Default : No
Forced : No

Text #1
ID : 4
Format : UTF-8
Codec ID : S_TEXT/UTF8
Codec ID/Info : UTF-8 Plain Text
Duration : 1 h 38 min
Bit rate : 120 b/s
Count of elements : 1594
Stream size : 86.8 KiB (0%)
Language : Ukrainian
Default : No
Forced : No

Text #2
ID : 5
Format : UTF-8
Codec ID : S_TEXT/UTF8
Codec ID/Info : UTF-8 Plain Text
Duration : 1 h 41 min
Bit rate : 0 b/s
Count of elements : 10
Stream size : 195 Bytes (0%)
Title : forced
Language : English
Default : No
Forced : No

Text #3
ID : 6
Format : UTF-8
Codec ID : S_TEXT/UTF8
Codec ID/Info : UTF-8 Plain Text
Duration : 1 h 43 min
Bit rate : 83 b/s
Count of elements : 1794
Stream size : 63.0 KiB (0%)
Title : full
Language : English
Default : No
Forced : No

Menu
00:00:00.000 : en:Chapter 1
00:06:05.824 : en:Chapter 2
00:11:14.257 : en:Chapter 3
00:15:22.463 : en:Chapter 4
00:18:37.033 : en:Chapter 5
00:22:51.203 : en:Chapter 6
00:24:51.365 : en:Chapter 7
00:28:22.701 : en:Chapter 8
00:32:03.713 : en:Chapter 9
00:37:39.466 : en:Chapter 10
00:42:10.820 : en:Chapter 11
00:45:56.253 : en:Chapter 12
00:48:48.676 : en:Chapter 13
00:52:16.133 : en:Chapter 14
00:57:02.878 : en:Chapter 15
01:03:23.258 : en:Chapter 16
01:08:42.035 : en:Chapter 17
01:16:30.586 : en:Chapter 18
01:19:47.241 : en:Chapter 19
01:23:12.362 : en:Chapter 20
01:28:23.089 : en:Chapter 21
01:33:12.170 : en:Chapter 22
01:37:07.655 : en:Chapter 23
01:38:50.049 : en:Chapter 24
Скріншоти





Джерело: &
Особиста оцінка: 0 - не дивився


 Трекер:    Зареєстрований   

Завантажити / скачати фільм українською



відео для новачків



 Зареєстрований:   2018-03-07 20:14
 Розмір:   12.7 GB 
 Оцінка фільму:   9.2/10 (Голосів: 14)
   
bot 
робот


З нами з: 30.09.07
Востаннє: 26.05.05
Повідомлень: 25673

2018-03-07 20:14  
Тему перенесено з Анонси релізів до форуму Фільми в HD


staf777

0mage0 
VIP


З нами з: 06.10.15
Востаннє: 30.09.20
Повідомлень: 696

2020-02-01 19:40  
Дивитися можна, є певні смішні моменти.
Ваш часовий пояс: GMT + 2 Години

Нова тема   Відповісти