30 днів ночі / 30 Days of Night (2007) 1080p Ukr/Eng | Sub Eng

Нові коментарі

Нова тема   Відповісти
Останній раз роздавалося Dr.S (2019-05-20)
Автор Повідомлення
staf777 
Відео Гуртом - підтримка та поширення
Відео Гуртом - підтримка та поширення


З нами з: 16.11.16
Востаннє: 19.05.19
Повідомлень: 2356

2018-03-07 00:28  
30 днів ночі / 30 Days of Night (2007) 1080p Ukr/Eng | Sub Eng

30 днів ночі / 30 Days of Night (2007) 1080p Ukr/Eng | Sub Eng


Жанр: трилер, жахи
Країна: США



Кінокомпанія: Columbia Pictures, 30 Days of Night, Dark Horse Entertainment & Ghost House Pictures
Режисер: Дейвід Слейд / David Slade
Актори: Джош Гартнет, Меліса Джордж, Денні Г'юстон, Бен Фостер, Марк Бун-мол., Марк Рендалл, Ембер Сейнсбурі, Ману Беннетт, Меган Френіч, Джоел Тобек

Сюжет:
Як вижити на Алясці, де ніч триває 30 днів, коли навколо самі вампіри, а усі зв'язки з цивілізацією втрачено? Це питання постає перед жителями маленького містечка, які на чолі з місцевим шерифом (Гартнет) намагаються дочекатися сходу сонця...

Картина є екранізацією графічного роману, написаного Стівом Найлсом та ілюстрованого Беном Темплсмітом. Ідея виникла у Найлса під час його перебування на Алясці. Поєднавши стародавні легенди про вампірів та сучасні умови життя у відрізаному від світу містечку, автор написав моторошний і водночас реалістичний роман. Центральна сюжетна лінія першоджерела дещо відрізняється від фільму: у стрічці образи антагоністів спрощені до уявлень про вампірів як “носферату” зі старих чорно-білих картин. Мови, якою у “30 днях” розмовляють упирі, насправді не існує: її спеціально вигадали Найлс, продюсер Сем Реймі та виконавець ролі головного лиходія Г'юстон. У 2010 вийшов сіквел: "30 Days of Night: Dark Days"


Тривалість: 01:52:49
Якість:
Відео:
кодек:
розмір кадру: 1920x800
бітрейт: 8283 кб/с

Аудіо # 1:
мова: українська
переклад: двоголосий закадровий
кодек: 5.1
бітрейт: 384 кб/с

Аудіо # 2:
мова: англійська
переклад: оригінал
кодек: 5.1
бітрейт: 1509 кб/с

Джерело озвучення:


Субтитри # 1-3 :
мова: англійська
тип: програмні (м'які)
формат: *.srt
Info
General
Unique ID : 171624364011001903971501300539339959632 (0x811DA6726D5C5A46A785AB3E04BDED50)
Complete name : H:\» HD українською » Фільми в HD\Жахи\30 Days of Night (2007) 1080p [Ukr Eng][Sub Eng][Hurtom].
Format :
Format version : Version 4 / Version 2
File size : 8.04 GiB
Duration : 1 h 53 min
Overall bit rate : 10.2 Mb/s
Movie name : 30 Days of Night (2007) 1080p [Ukr Eng][Sub Eng][Hurtom]
Encoded date : UTC 2018-03-07 08:39:35
Writing application : v9.8.0 ('Kuglblids') 64bit
Writing library : libebml v1.3.4 + v1.4.5
Cover : Yes
Attachments : cover.jpg

Video
ID : 1
Format : AVC
Format/Info : Advanced Video Codec
Format profile : [email protected]
Format settings, CABAC : Yes
Format settings, ReFrames : 5 frames
Codec ID : V_MPEG4/ISO/AVC
Duration : 1 h 53 min
Bit rate : 8 283 kb/s
Width : 1 920 pixels
Height : 800 pixels
Display aspect ratio : 2.40:1
Frame rate mode : Constant
Frame rate : 23.976 (24000/1001) FPS
Color space : YUV
Chroma subsampling : 4:2:0
Bit depth : 8 bits
Scan type : Progressive
Bits/(Pixel*Frame) : 0.225
Stream size : 6.54 GiB (81%)
Title : AVC [8283 kbps]
Writing library : core 155 r2901 7d0ff22
Encoding settings : cabac=1 / ref=5 / deblock=1:-3:-3 / analyse=0x3:0x113 / me=umh / subme=10 / psy=1 / psy_rd=1.00:0.10 / mixed_ref=1 / me_range=47 / chroma_me=1 / trellis=2 / 8x8dct=1 / cqm=0 / deadzone=21,11 / fast_pskip=0 / chroma_qp_offset=-2 / threads=6 / lookahead_threads=1 / sliced_threads=0 / nr=0 / decimate=0 / interlaced=0 / bluray_compat=0 / constrained_intra=0 / bframes=8 / b_pyramid=2 / b_adapt=2 / b_bias=0 / direct=3 / weightb=1 / open_gop=0 / weightp=2 / keyint=240 / keyint_min=23 / scenecut=40 / intra_refresh=0 / rc_lookahead=75 / rc=2pass / mbtree=1 / bitrate=8283 / ratetol=1.0 / qcomp=0.70 / qpmin=0 / qpmax=57 / qpstep=4 / cplxblur=20.0 / qblur=0.5 / vbv_maxrate=62500 / vbv_bufsize=78125 / nal_hrd=none / filler=0 / ip_ratio=1.30 / aq=2:0.70
Language : English
Default : Yes
Forced : No

Audio #1
ID : 2
Format : AC-3
Format/Info : Audio Coding 3
Mode extension : CM (complete main)
Format settings, Endianness : Big
Codec ID : A_AC3
Duration : 1 h 53 min
Bit rate mode : Constant
Bit rate : 384 kb/s
Channel(s) : 6 channels
Channel positions : Front: L C R, Side: L R, LFE
Sampling rate : 48.0 kHz
Frame rate : 31.250 FPS (1536 spf)
Bit depth : 16 bits
Compression mode : Lossy
Stream size : 311 MiB (4%)
Title : DVO 1+1
Language : Ukrainian
Default : Yes
Forced : Yes

Audio #2
ID : 3
Format :
Format/Info : Digital Theater Systems
Mode : 16
Format settings, Endianness : Big
Codec ID : A_DTS
Duration : 1 h 53 min
Bit rate mode : Constant
Bit rate : 1 509 kb/s
Channel(s) : 6 channels
Channel positions : Front: L C R, Side: L R, LFE
Sampling rate : 48.0 kHz
Frame rate : 93.750 FPS (512 spf)
Bit depth : 24 bits
Compression mode : Lossy
Stream size : 1.19 GiB (15%)
Language : English
Default : No
Forced : No

Text #1
ID : 4
Format : UTF-8
Codec ID : S_TEXT/UTF8
Codec ID/Info : UTF-8 Plain Text
Duration : 1 h 41 min
Bit rate : 27 b/s
Count of elements : 739
Stream size : 20.3 KiB (0%)
Language : English
Default : No
Forced : No

Text #2
ID : 5
Format : UTF-8
Codec ID : S_TEXT/UTF8
Codec ID/Info : UTF-8 Plain Text
Duration : 1 h 46 min
Bit rate : 31 b/s
Count of elements : 993
Stream size : 24.2 KiB (0%)
Title : SDH
Language : English
Default : No
Forced : No

Text #3
ID : 6
Format : UTF-8
Codec ID : S_TEXT/UTF8
Codec ID/Info : UTF-8 Plain Text
Duration : 1 h 5 min
Bit rate : 1 b/s
Count of elements : 23
Stream size : 538 Bytes (0%)
Title : Vampire Dialogue
Language : English
Default : No
Forced : No

Menu
00:00:00.000 : en:Chapter 1
00:06:31.139 : en:Chapter 2
00:14:51.432 : en:Chapter 3
00:21:05.635 : en:Chapter 4
00:28:12.895 : en:Chapter 5
00:35:53.150 : en:Chapter 6
00:41:37.994 : en:Chapter 7
00:50:26.440 : en:Chapter 8
00:54:39.900 : en:Chapter 9
01:02:24.448 : en:Chapter 10
01:09:03.264 : en:Chapter 11
01:14:49.443 : en:Chapter 12
01:23:20.578 : en:Chapter 13
01:26:41.069 : en:Chapter 14
01:33:37.109 : en:Chapter 15
01:38:00.332 : en:Chapter 16
Скріншоти



Подяка пану dvorsky за сиру доріжку та пану MAKAPOHHIK за зведення.
Джерело: &
Особиста оцінка: 0 - не дивився


 Трекер:    Зареєстрований   

Завантажити / скачати фільм українською



відео для новачків



 Зареєстрований:   2018-03-07 13:57
 Розмір:   8.04 GB 
 Оцінка фільму:   8/10 (Голосів: 13)
   
Інші релізи
   30 днів ночі / 30 Days of Night (2007) AVC Ukr/Eng | Sub Eng staf777  0 / 0   2.8 GB   2018-05-31 22:49 
   30 днів ночі / 30 Days of Night (2007) Remux 1080p Ukr/Eng | Sub Eng kvvdvd  0 / 0   23.37 GB   2017-04-22 09:36 
   30 днів ночі / 30 Days of Night (2007) 720p-mini Ukr/Eng | Sub Eng ThEO  3 / 0   2.14 GB   2011-07-02 17:52 
   30 днів ночі / 30 Days of Night (2007) MAKAPOHHIK  2 / 0   1.46 GB   2009-09-01 10:06 
bot 
робот


З нами з: 30.09.07
Востаннє: 26.05.05
Повідомлень: 21352

2018-03-07 13:56  
Тему перенесено з Анонси релізів до форуму Фільми в HD


staf777

Ваш часовий пояс: GMT + 2 Години

Нова тема   Відповісти