Брейвен / Braven (2018) Remux 1080p Ukr/Eng | Sub Eng

Нові коментарі

Нова тема   Відповісти
Автор Повідомлення
Anonymous 







2018-03-06 16:44  
Брейвен / Braven (2018) Remux 1080p Ukr/Eng | Sub Eng

Брейвен / Braven (2018) Remux 1080p Ukr/Eng | Sub Eng


Жанр: бойовик, драма
Країна: Канада



Кінокомпанія: Pride of Gypsies, Braven NL, Hassell Free Production, Ingenious Media
Режисер: Лін Одінґ / Lin Oeding
Актори: Джейсон Момоа / Jason Momoa, Джилл Ваґнер / Jill Wagner, Занн МакКларнон / Zahn McClarnon, Ґаррет Діллагант / Garret Dillahunt, Стівен Ленґ / Stephen Lang, Брендан Флетчер, Саша Россоф / Sasha Rossof, Сала Бейкер / Sala Baker, Тіч Ґрант / Teach Grant, Тай Александер / Tye Alexander та інші

Сюжет:
Джо Брейвен — скромний лісник, що мешкає в маленькому затишному будинку в горах на кордоні США і Канади. Несподівано все його життя змінюється. У цьому тихому місці, де спокій його сім'ї не турбував ніхто, крім звірів, він стикається з небезпечною бандою наркоторговців. Але і вони навіть не підозрювали, що в тиші лісу ховається настільки небезпечний чоловік, — йому є за кого боротися, і він не боїться вбивати.
Офіційні українські промо та трейлер:




Рейтинг MPAA: R - особам до 17 років обов'язкова присутність батьків або дорослого опікуна
Вікова категорія: 16+

Тривалість: 01:33:36
Якість: Remux
Відео:
кодек:
розмір кадру: 1920х1080
бітрейт: 19,6 Мб/с

Аудіо # 1:
мова: українська
переклад: професійний дубльований | студія ААА-sound
кодек: 2.0 [стерео]
бітрейт: 192 кб/с
Інформація про дубляж
Переклад: Юлія Когут
Режисер дубляжу: Олександр Єфімов
Звукорежисер перезапису: Олександр Єфімов
Ролі дублювали: Юрій Ребрик, Юлія Перенчук, Дмитро Завадський, Андрій Федінчик, Дмитро Гаврилов, Андрій Альохін, Євген Пашин, Роман Чорний, Дмитро Сова та інші.

Фільм дубльовано студією ААА-sound у 2018 році на замовлення компанії "Кіноманія".
Аудіо # 2:
мова: англійська
переклад: оригінал
кодек: -HD MA 5.1
бітрейт: 4039 кб/с

Аудіо # 3:
мова: англійська
переклад: оригінал
кодек: 5.1
бітрейт: 640 кб/с

Субтитри # 1-2:
мова: англійська (повні, SDH)
тип: програмні (м'які)
формат: *.srt

Збережено оригінальні розділи, як на Blu-ray
Info
Код:
Complete name               : Braven (2018) [Ukr,Eng sub.Eng] Remux 1080p [Hurtom].
Format                      :
Format version              : Version 4 / Version 2
File size                   : 16.0 GiB
Duration                    : 1 h 33 min
Overall bit rate mode       : Variable
Overall bit rate            : 24.5 Mb/s
Movie name                  : Брейвен / Braven (2018) [Ukr,Eng sub.Eng] Remux 1080p [Hurtom]
Released date               : 2018
Encoded date                : UTC 2018-04-04 06:39:09
Writing application         : v22.0.0 ('At The End Of The World') 64-bit
Writing library             : libebml v1.3.5 + v1.4.8
Cover                       : Yes
Comment                     : http://www.imdb.com/title/tt5001754/
Attachments                 : cover.jpg
ARTIST                      : Джейсон Момоа / Jason Momoa, Джилл Ваґнер / Jill Wagner, Занн МакКларнон / Zahn McClarnon, Ґаррет Діллагант / Garret Dillahunt, Стівен Ленґ / Stephen Lang, Брендан Флетчер, Саша Россоф / Sasha Rossof, Сала Бейкер / Sala Baker, Тіч Ґрант / Teach Grant, Тай Александер / Tye Alexander та інші
DIRECTOR                    : Лін Одінґ / Lin Oeding
GENRE                       : бойовик, драма
SYNOPSIS                    : Джо Брейвен — скромний лісник, що мешкає в маленькому затишному будинку в горах на кордоні США і Канади. Несподівано все його життя змінюється. У цьому тихому місці, де спокій його сім'ї не турбував ніхто, крім звірів, він стикається з небезпечною бандою наркоторговців. Але і вони навіть не підозрювали, що в тиші лісу ховається настільки небезпечний чоловік, — йому є за кого боротися, і він не боїться вбивати...
Url                         : https://toloka.to/t88187

Video
ID                          : 1
Format                      : AVC
Format/Info                 : Advanced Video Codec
Format profile              : [email protected]
Format settings             : CABAC / 4 Ref Frames
Format settings, CABAC      : Yes
Format settings, ReFrames   : 4 frames
Codec ID                    : V_MPEG4/ISO/AVC
Duration                    : 1 h 33 min
Bit rate mode               : Variable
Bit rate                    : 19.6 Mb/s
Maximum bit rate            : 35.0 Mb/s
Width                       : 1 920 pixels
Height                      : 1 080 pixels
Display aspect ratio        : 16:9
Frame rate mode             : Constant
Frame rate                  : 23.976 (24000/1001) FPS
Standard                    : NTSC
Color space                 : YUV
Chroma subsampling          : 4:2:0
Bit depth                   : 8 bits
Scan type                   : Progressive
Bits/(Pixel*Frame)          : 0.395
Stream size                 : 12.8 GiB (80%)
Title                       : Брейвен / Braven (2018) Remux 1080p [Hurtom]
Language                    : English
Default                     : Yes
Forced                      : No
Color range                 : Limited
Color primaries             : BT.709
Transfer characteristics    : BT.709
Matrix coefficients         : BT.709

Audio #1
ID                          : 2
Format                      : AC-3
Format/Info                 : Audio Coding 3
Codec ID                    : A_AC3
Duration                    : 1 h 33 min
Bit rate mode               : Constant
Bit rate                    : 192 kb/s
Channel(s)                  : 2 channels
Channel positions           : Front: L R
Sampling rate               : 48.0 kHz
Frame rate                  : 31.250 FPS (1536 SPF)
Bit depth                   : 16 bits
Compression mode            : Lossy
Stream size                 : 129 MiB (1%)
Title                       : Dub [ААА-sound, Megogo] 2.0 [stereo] 192 Kbps [Hurtom]
Language                    : Ukrainian
Service kind                : Complete Main
Default                     : Yes
Forced                      : Yes

Audio #2
ID                          : 3
Format                      :
Format/Info                 : Digital Theater Systems
Format profile              : MA / Core
Codec ID                    : A_DTS
Duration                    : 1 h 33 min
Bit rate mode               : Variable / Constant
Bit rate                    : 4 039 kb/s / 1 509 kb/s
Channel(s)                  : 6 channels
Channel positions           : Front: L C R, Side: L R, LFE
Sampling rate               : 48.0 kHz
Frame rate                  : 93.750 FPS (512 SPF)
Bit depth                   : 24 bits
Compression mode            : Lossless / Lossy
Stream size                 : 2.64 GiB (16%)
Title                       : Original, -HD MA 5.1 4039 Kbps
Language                    : English
Default                     : No
Forced                      : No

Audio #3
ID                          : 4
Format                      : AC-3
Format/Info                 : Audio Coding 3
Codec ID                    : A_AC3
Duration                    : 1 h 33 min
Bit rate mode               : Constant
Bit rate                    : 640 kb/s
Channel(s)                  : 6 channels
Channel positions           : Front: L C R, Side: L R, LFE
Sampling rate               : 48.0 kHz
Frame rate                  : 31.250 FPS (1536 SPF)
Bit depth                   : 16 bits
Compression mode            : Lossy
Stream size                 : 429 MiB (3%)
Title                       : Original, 5.1 640 Kbps
Language                    : English
Service kind                : Complete Main
Default                     : No
Forced                      : No

Text #1
ID                          : 5
Format                      : UTF-8
Codec ID                    : S_TEXT/UTF8
Codec ID/Info               : UTF-8 Plain Text
Duration                    : 1 h 24 min
Bit rate                    : 33 b/s
Count of elements           : 752
Stream size                 : 20.5 KiB (0%)
Title                       : Eng full
Language                    : English
Default                     : No
Forced                      : No

Text #2
ID                          : 6
Format                      : UTF-8
Codec ID                    : S_TEXT/UTF8
Codec ID/Info               : UTF-8 Plain Text
Duration                    : 1 h 24 min
Bit rate                    : 36 b/s
Count of elements           : 877
Stream size                 : 22.5 KiB (0%)
Title                       : Eng SDH
Language                    : English
Default                     : No
Forced                      : No

Menu
00:00:00.000                : en:00:00:00.000
00:14:01.591                : en:00:14:01.591
00:28:18.572                : en:00:28:18.572
00:41:32.990                : en:00:41:32.990
00:50:55.302                : en:00:50:55.302
01:03:18.211                : en:01:03:18.211
01:19:35.562                : en:01:19:35.562
01:29:20.313                : en:01:29:20.313



Підтримати купівлю інших фільмів можна тут.


Джерело: &
Подяка AngryBirdsUA та Electroz'у за українську доріжку.

[04.04.2018] Реліз оновлено - замінено українську доріжку з моно на стерео з


Золотий реліз (завантажене не впливає на рейтинг)
 Трекер:    Зареєстрований   

Завантажити / скачати фільм українською



відео для новачків



 Зареєстрований:   2018-04-04 10:01
 Розмір:   16.02 GB 
 Оцінка фільму:   6.6/10 (Голосів: 21)
   
Інші релізи
   Брейвен / Braven (2018) 1080p H.265 Ukr/Eng | Sub Eng ukr_anonymous  2 / 0   3.78 GB   2018-04-18 15:15 
   Брейвен / Braven (2018) 720p Ukr/Eng | Sub Eng igor911  4 / 0   3.69 GB   2018-04-04 09:11 
   Брейвен / Braven (2018) 1080p Ukr/Eng | Sub Eng Electroz  4 / 0   6.15 GB   2018-04-03 22:47 
   Брейвен / Braven (2018) AVC Ukr/Eng | Sub Eng 11FrYkT  14 / 5   1.45 GB   2018-04-03 22:35 
   Брейвен / Braven (2018) Ukr/Eng Covenant  6 / 2   1.45 GB   2018-03-09 21:24 
Anonymous 







2018-04-04 10:04  
Реліз оновлено - замінено українську доріжку з моно на стерео з 
armogun 
Свій


З нами з: 04.05.13
Востаннє: 13.09.18
Повідомлень: 70

2018-04-09 19:54  
Я вже думав вимикати, але дотерпів до епічного закінчення, дуже розвеселило.
strategic 
1k G+


З нами з: 27.01.13
Востаннє: 18.09.18
Повідомлень: 109

2018-07-14 22:11  
Той прикрий випадок, коли гарні актори, що запам’яталися нам ролями в Аватарі, Грі Престолів, Фарго, не змогли врятувати це гімно. Що режисура, що сценарій, що музика - все гімняне.
Kiara 
Свій


З нами з: 18.08.10
Востаннє: 18.09.18
Повідомлень: 118

2018-09-17 18:59  
Додайте, будь ласка, швидкості.. не розумію, 4 людини роздають, а качає кілобітами в секунду. Інший фільм завантажився за 5 хв по 9 Мб\с...
Ваш часовий пояс: GMT + 2 Години

Нова тема   Відповісти