Таємне життя Волтера Мітті / The Secret Life of Walter Mitty (2013) Remux 1080p 2xUkr/Eng | Sub Ukr/Eng

Нові коментарі

Нова тема   Відповісти
Автор Повідомлення
staf777 
Попереджень: 1
Попереджень: 1 


З нами з: 16.11.16
Востаннє: 21.10.18
Повідомлень: 1648

2018-03-05 16:27  
Таємне життя Волтера Мітті / The Secret Life of Walter Mitty (2013) Remux 1080p 2xUkr/Eng | Sub Ukr/Eng

Таємне життя Волтера Мітті / The Secret Life of Walter Mitty (2013) Remux 1080p 2xUkr/Eng | Sub Ukr/Eng


Жанр: пригодницький, комедія, драма
Країна: США



Кінокомпанія: Twentieth Century Fox Film Corporation, TSG Entertainment, Samuel Goldwyn Films
Режисер: Бен Стіллер
Актори: Бен Стіллер, Крістен Віґ, Шон Пенн, Адам Скотт, Кетрін Ган, Шірлі Маклейн, Петтон Освальт, Джої Слотнік, Тосіко Онідзава, Адріан Мартінез

Сюжет:
Хто сказав, що в серці маленької людини не можуть жити великі мрії? Навіть скромному і непомітному службовцю хочеться іноді зробити нехай божевільні, але геройські вчинки, повірити в свою силу і мужність. Чому всіх рятувати повинні виключно супермени?


Тривалість: 01:54:51
Якість: Remux 1080p
Відео:
кодек:
розмір кадру: 1920x1080
бітрейт: 25 Мб/с

Аудіо # 1:
мова: українська
переклад: професійний дубльований
кодек: 5.1
бітрейт: 448 кб/с

Аудіо # 2:
мова: українська
переклад: багатоголосий закадровий
кодек: 2.0
бітрейт: 192 кб/с

Аудіо # 3:
мова: англійська
переклад: оригінал
кодек: -HD MA 7.1
бітрейт: 4456 кб/с

Субтитри:
мова: українська
тип: програмні (м'які)
формат: *.srt

Субтитри:
мова: англійська
тип: програмні (м'які)
формат: *.srt
Info
General
Unique ID : 244916863131877039164529126865039846234 (0xB84145A5AA6816DDA4476741BB40EB5A)
Complete name : H:\» HD українською » Фільми в HD\Пригодницький\Life of Walter Mitty (2013) Remux 1080p [2xUkr][Eng][Sub Eng][Hurtom].
Format :
Format version : Version 4 / Version 2
File size : 24.1 GiB
Duration : 1 h 54 min
Overall bit rate mode : Variable
Overall bit rate : 30.1 Mb/s
Movie name : The Secret Life of Walter Mitty (2013) Remux 1080p [2xUkr][Eng][Sub Eng][Hurtom]
Encoded date : UTC 2018-03-10 09:41:17
Writing application : v9.8.0 ('Kuglblids') 64bit
Writing library : libebml v1.3.4 + v1.4.5

Video
ID : 1
Format : AVC
Format/Info : Advanced Video Codec
Format profile : [email protected]
Format settings, CABAC : Yes
Format settings, ReFrames : 4 frames
Codec ID : V_MPEG4/ISO/AVC
Duration : 1 h 54 min
Bit rate mode : Variable
Bit rate : 25.0 Mb/s
Maximum bit rate : 34.3 Mb/s
Width : 1 920 pixels
Height : 1 080 pixels
Display aspect ratio : 16:9
Frame rate mode : Constant
Frame rate : 23.976 (24000/1001) FPS
Color space : YUV
Chroma subsampling : 4:2:0
Bit depth : 8 bits
Scan type : Progressive
Bits/(Pixel*Frame) : 0.502
Stream size : 20.0 GiB (83%)
Language : English
Default : Yes
Forced : No

Audio #1
ID : 2
Format : AC-3
Format/Info : Audio Coding 3
Mode extension : CM (complete main)
Format settings, Endianness : Big
Codec ID : A_AC3
Duration : 1 h 54 min
Bit rate mode : Constant
Bit rate : 448 kb/s
Channel(s) : 6 channels
Channel positions : Front: L C R, Side: L R, LFE
Sampling rate : 48.0 kHz
Frame rate : 31.250 FPS (1536 spf)
Bit depth : 16 bits
Compression mode : Lossy
Stream size : 367 MiB (1%)
Title : [UA-DUB]
Language : Ukrainian
Default : Yes
Forced : Yes

Audio #2
ID : 3
Format : AC-3
Format/Info : Audio Coding 3
Mode extension : CM (complete main)
Format settings, Endianness : Big
Codec ID : A_AC3
Duration : 1 h 54 min
Bit rate mode : Constant
Bit rate : 192 kb/s
Channel(s) : 2 channels
Channel positions : Front: L R
Sampling rate : 48.0 kHz
Frame rate : 31.250 FPS (1536 spf)
Bit depth : 16 bits
Compression mode : Lossy
Stream size : 157 MiB (1%)
Title : [UA-MVO-2+2]
Language : Ukrainian
Default : No
Forced : No

Audio #3
ID : 4
Format :
Format/Info : Digital Theater Systems
Format profile : MA / Core
Mode : 16
Format settings, Endianness : Big
Codec ID : A_DTS
Duration : 1 h 54 min
Bit rate mode : Variable / Constant
Bit rate : 4 456 kb/s / 1 509 kb/s
Channel(s) : 8 channels / 6 channels
Channel positions : Front: L C R, Side: L R, Back: L R, LFE / Front: L C R, Side: L R, LFE
Sampling rate : 48.0 kHz
Frame rate : 93.750 FPS (512 spf)
Bit depth : 24 bits
Compression mode : Lossless / Lossy
Stream size : 3.57 GiB (15%)
Language : English
Default : No
Forced : No

Text #1
ID : 5
Format : UTF-8
Codec ID : S_TEXT/UTF8
Codec ID/Info : UTF-8 Plain Text
Duration : 1 h 53 min
Bit rate : 71 b/s
Count of elements : 1567
Stream size : 59.4 KiB (0%)
Language : Ukrainian
Default : No
Forced : No

Text #2
ID : 6
Format : UTF-8
Codec ID : S_TEXT/UTF8
Codec ID/Info : UTF-8 Plain Text
Duration : 1 h 52 min
Bit rate : 54 b/s
Count of elements : 1696
Stream size : 45.3 KiB (0%)
Language : English
Default : No
Forced : No

Menu
00:00:00.000 : :Chapter 01
00:02:51.004 : :Chapter 03
00:05:39.756 : :Chapter 05
00:08:33.971 : :Chapter 07
00:10:54.570 : :Chapter 09
00:13:52.248 : :Chapter 11
00:17:48.233 : :Chapter 13
00:20:39.655 : :Chapter 15
00:23:33.245 : :Chapter 17
00:26:31.381 : :Chapter 19
00:30:08.264 : :Chapter 21
00:32:19.520 : :Chapter 23
00:35:01.057 : :Chapter 25
00:38:18.838 : :Chapter 27
00:40:31.846 : :Chapter 29
00:44:51.480 : :Chapter 31
00:48:13.890 : :Chapter 33
00:51:29.669 : :Chapter 35
00:54:36.273 : :Chapter 37
00:57:28.403 : :Chapter 39
01:00:02.140 : :Chapter 41
01:03:10.620 : :Chapter 43
01:05:28.382 : :Chapter 45
01:09:27.288 : :Chapter 47
01:11:23.028 : :Chapter 49
01:14:06.650 : :Chapter 51
01:18:31.748 : :Chapter 53
01:22:50.882 : :Chapter 55
01:28:52.535 : :Chapter 57
01:30:24.460 : :Chapter 59
01:33:54.670 : :Chapter 61
01:35:39.483 : :Chapter 63
01:38:24.356 : :Chapter 65
01:39:48.273 : :Chapter 67
01:43:01.675 : :Chapter 69
01:44:28.262 : :Chapter 71
01:54:34.659 : :Chapter 72
Скріншоти



Джерело: &
Особиста оцінка: 0 - не дивився


Золотий реліз (завантажене не впливає на рейтинг)
 Трекер:    Зареєстрований   

Завантажити / скачати фільм українською



відео для новачків



 Зареєстрований:   2018-03-10 16:39
 Розмір:   24.07 GB 
 Оцінка фільму:   9/10 (Голосів: 21)
   
bot 
робот


З нами з: 30.09.07
Востаннє: 26.05.05
Повідомлень: 19984

2018-03-05 22:38  
Тему перенесено з Анонси релізів до форуму Фільми в HD


staf777

11FrYkT 
Модератор відео


З нами з: 20.02.11
Востаннє: 21.10.18
Повідомлень: 5093

2018-03-07 17:51  
staf777, чому не додали 2 доріжку?

https://toloka.to/t87059

staf777 
Попереджень: 1
Попереджень: 1 


З нами з: 16.11.16
Востаннє: 21.10.18
Повідомлень: 1648

2018-03-08 09:58  
11FrYkT


А чому Ви в свій ріп не додали 2 доріжку?

11FrYkT 
Модератор відео


З нами з: 20.02.11
Востаннє: 21.10.18
Повідомлень: 5093

2018-03-08 10:03  
staf777 написано:

11FrYkT
А чому Ви в свій ріп не додали 2 доріжку?

А включити розум і догадатися не варіант? Тоді пояснюю, доріжки на той момент не було, Ви реліз робите сьогодні і вона є. Але ж бляха Вам вже не раз робили зауваження за Вашу спішку, то ні щоб просто виправити то потрібно щось заліпити, не можу з наших людей

Oleksa9 
VIP


З нами з: 17.05.12
Востаннє: 21.10.18
Повідомлень: 311

2018-03-08 16:22  
Так там листочки зелені літають та кружляють.... Wide grin
staf777 
Попереджень: 1
Попереджень: 1 


З нами з: 16.11.16
Востаннє: 21.10.18
Повідомлень: 1648

2018-03-10 13:05  
Цитата:
Так там листочки зелені літають та кружляють....
Ну ні усі ж спортсмени як ти
Додав доріжку від 2+2

Mishir 
Новенький


З нами з: 06.11.17
Востаннє: 22.09.18
Повідомлень: 3

2018-03-10 17:39  
Ну таке...
nazar.e30 
Новенький


З нами з: 09.01.11
Востаннє: 21.10.18
Повідомлень: 7

2018-03-17 22:44  
Фільм - бомба. Може не з першого разу зайде, але як зайде - то не відпустить.
ukrnet 
Свій


З нами з: 03.01.14
Востаннє: 21.10.18
Повідомлень: 54

2018-10-03 22:50  
станьте на роздачу люди не завантажеється сос бракує швидкості
Ваш часовий пояс: GMT + 2 Години

Нова тема   Відповісти