Форма води / The Shape of Water (2017) Remux 1080p Ukr/Eng | Sub Ukr/Eng

Нові коментарі

Нова тема   Відповісти
Автор Повідомлення
staf777 
Попереджень: 1
Попереджень: 1 


З нами з: 16.11.16
Востаннє: 18.10.18
Повідомлень: 1637

2018-03-05 13:41  
Форма води / The Shape of Water (2017) Remux 1080p Ukr/Eng | Sub Ukr/Eng

Форма води / The Shape of Water (2017) Remux 1080p Ukr/Eng | Sub Ukr/Eng


Жанр: драма, мелодрама, пригоди, трилер, фентезі
Країна: США

4 Оскари, 2 Золотих глобуси, по 3 премії Британської кіноакадемії та Венеційського кінофестивалю



Кінокомпанія: Bull Productions, Double Dare You (DDY), Fox Searchlight Pictures
Режисер: Ґільєрмо Дель Торо / Guillermo del Toro
Актори: Саллі Гоукінс / Sally Hawkins, Майкл Шеннон / Michael Shannon, Річард Дженкінс / Richard Jenkins, Октавія Спенсер / Octavia Spencer, Майкл Сталберґ / Michael Stuhlbarg, Даґ Джонс / Doug Jones, Лорен Лі Сміт / Lauren Lee Smith, Девід Г'юлетт / David Hewlett, Нік Сірсі / Nick Searcy, Стюарт Арнотт / Stewart Arnott та інші

Сюжет:
На дворі 60-ті роки минулого століття. У секретній лабораторії прибиральницею працює Елайза (Саллі Гоукінс). Понад усе вона хотіла б співати, бо дуже любить музику, проте її мрії не судилося здійснитися, адже вона німа. Якось до лабораторії привозять дивне створіння. Істота живе у воді, і досліджують її як тварину, проте Елайза точно знає, що піддослідний має інтелект. І він симпатизує дівчині, не помічаючи її головної вади. Дізнавшись, що науковці у своїх дослідах планують знущання над істотою, Елайза вирішує влаштувати втечу.


Тривалість: 02:03:19
Якість: Remux 1080p
Відео:
кодек:
розмір кадру: 1920x1080
бітрейт: 27,4 Mб/с

Аудіо # 1:
мова: українська
переклад: професійний дубльований
кодек: 5.1
бітрейт: 448 кб/с

Аудіо # 2:
мова: англійська
переклад: оригінал
кодек: -HD MA 5.1
бітрейт: 3840 кб/с

Субтитри #1-2: (форсовані, повні)
мова: українська
тип: програмні (м'які)
формат: *.srt

Субтитри #3-5: (форсовані, повні, SDH)
мова: англійська
тип: програмні (м'які)
формат: *.srt
Info
General
Unique ID : 237488809037019915189925146696034848811 (0xB2AAAE4E076325E18A2D2976BBFC902B)
Complete name : H:\» HD українською » Фільми в HD\Фентезі\The Shape of Water (2017) Remux 1080p [Ukr][Eng][Sub Ukr,Eng][Hurtom].
Format :
Format version : Version 4 / Version 2
File size : 27.3 GiB
Duration : 2 h 3 min
Overall bit rate mode : Variable
Overall bit rate : 31.7 Mb/s
Movie name : The Shape of Water (2017) Remux 1080p [Ukr][Eng][Sub Ukr,Eng][Hurtom]
Encoded date : UTC 2018-05-18 09:35:55
Writing application : v9.8.0 ('Kuglblids') 64bit
Writing library : libebml v1.3.4 + v1.4.5
Cover : Yes
Attachments : cover.jpg

Video
ID : 1
Format : AVC
Format/Info : Advanced Video Codec
Format profile : [email protected]
Format settings : CABAC / 4 Ref Frames
Format settings, CABAC : Yes
Format settings, ReFrames : 4 frames
Codec ID : V_MPEG4/ISO/AVC
Duration : 2 h 3 min
Bit rate mode : Variable
Bit rate : 27.4 Mb/s
Maximum bit rate : 34.2 Mb/s
Width : 1 920 pixels
Height : 1 080 pixels
Display aspect ratio : 16:9
Frame rate mode : Constant
Frame rate : 23.976 (24000/1001) FPS
Color space : YUV
Chroma subsampling : 4:2:0
Bit depth : 8 bits
Scan type : Progressive
Bits/(Pixel*Frame) : 0.551
Stream size : 23.6 GiB (86%)
Language : English
Default : Yes
Forced : No

Audio #1
ID : 2
Format : AC-3
Format/Info : Audio Coding 3
Codec ID : A_AC3
Duration : 2 h 3 min
Bit rate mode : Constant
Bit rate : 448 kb/s
Channel(s) : 6 channels
Channel positions : Front: L C R, Side: L R, LFE
Sampling rate : 48.0 kHz
Frame rate : 31.250 FPS (1536 SPF)
Bit depth : 16 bits
Compression mode : Lossy
Stream size : 395 MiB (1%)
Title : [UA-DUB-| студія Postmodern]
Language : Ukrainian
Service kind : Complete Main
Default : Yes
Forced : Yes

Audio #2
ID : 3
Format :
Format/Info : Digital Theater Systems
Format profile : MA / Core
Codec ID : A_DTS
Duration : 2 h 3 min
Bit rate mode : Variable / Constant
Bit rate : 3 840 kb/s / 1 509 kb/s
Channel(s) : 6 channels
Channel positions : Front: L C R, Side: L R, LFE
Sampling rate : 48.0 kHz
Frame rate : 93.750 FPS (512 SPF)
Bit depth : 24 bits
Compression mode : Lossless / Lossy
Stream size : 3.30 GiB (12%)
Title : Original
Language : English
Default : No
Forced : No

Text #1
ID : 4
Format : UTF-8
Codec ID : S_TEXT/UTF8
Codec ID/Info : UTF-8 Plain Text
Duration : 1 h 47 min
Bit rate : 5 b/s
Count of elements : 167
Stream size : 4.49 KiB (0%)
Title : forced
Language : Ukrainian
Default : Yes
Forced : Yes

Text #2
ID : 5
Format : UTF-8
Codec ID : S_TEXT/UTF8
Codec ID/Info : UTF-8 Plain Text
Duration : 2 h 1 min
Bit rate : 71 b/s
Count of elements : 1398
Stream size : 64.1 KiB (0%)
Title : full
Language : Ukrainian
Default : No
Forced : No

Text #3
ID : 6
Format : UTF-8
Codec ID : S_TEXT/UTF8
Codec ID/Info : UTF-8 Plain Text
Duration : 1 h 47 min
Bit rate : 3 b/s
Count of elements : 169
Stream size : 2.51 KiB (0%)
Title : Forced
Language : English
Default : No
Forced : No

Text #4
ID : 7
Format : UTF-8
Codec ID : S_TEXT/UTF8
Codec ID/Info : UTF-8 Plain Text
Duration : 1 h 56 min
Bit rate : 43 b/s
Count of elements : 1307
Stream size : 36.8 KiB (0%)
Title : Full
Language : English
Default : No
Forced : No

Text #5
ID : 8
Format : UTF-8
Codec ID : S_TEXT/UTF8
Codec ID/Info : UTF-8 Plain Text
Duration : 2 h 2 min
Bit rate : 56 b/s
Count of elements : 1925
Stream size : 51.3 KiB (0%)
Title : SDH
Language : English
Default : No
Forced : No

Menu
00:00:00.000 : en:00:00:00.000
00:06:24.467 : en:00:06:24.467
00:12:54.774 : en:00:12:54.774
00:18:32.987 : en:00:18:32.987
00:23:45.591 : en:00:23:45.591
00:29:39.653 : en:00:29:39.653
00:35:29.836 : en:00:35:29.836
00:39:30.535 : en:00:39:30.535
00:42:42.435 : en:00:42:42.435
00:48:34.036 : en:00:48:34.036
00:52:26.935 : en:00:52:26.935
00:57:30.197 : en:00:57:30.197
01:01:52.542 : en:01:01:52.542
01:07:35.551 : en:01:07:35.551
01:12:13.496 : en:01:12:13.496
01:17:50.791 : en:01:17:50.791
01:21:17.122 : en:01:21:17.122
01:26:05.911 : en:01:26:05.911
01:32:48.480 : en:01:32:48.480
01:37:18.750 : en:01:37:18.750
01:43:24.115 : en:01:43:24.115
01:46:06.610 : en:01:46:06.610
01:50:31.667 : en:01:50:31.667
01:58:34.858 : en:01:58:34.858
Скріншоти





Джерело: &

Особиста оцінка: 0 - не дивився

18.05.2018 реліз оновлено - замінено стереодоріжку з на 5.1 з


Золотий реліз (завантажене не впливає на рейтинг)
 Трекер:    Зареєстрований   

Завантажити / скачати фільм українською



відео для новачків



 Зареєстрований:   2018-05-18 13:16
 Розмір:   27.3 GB 
 Оцінка фільму:   6.7/10 (Голосів: 33)
   
IRONHIDE 
Поважний учасник


З нами з: 06.08.10
Востаннє: 18.10.18
Повідомлень: 172

2018-03-05 14:04  
Ого ну і номінацій в цього фільму, чекаємо!
PuMa.ua 
VIP


З нами з: 29.08.08
Востаннє: 18.10.18
Повідомлень: 282

2018-03-05 16:08  
IRONHIDE
Це перемоги, а не номінації. Номінації там лічити не перелічити.

staf777 
Попереджень: 1
Попереджень: 1 


З нами з: 16.11.16
Востаннє: 18.10.18
Повідомлень: 1637

2018-03-05 19:14  
Фільм не дуже сподобався за що стільки нагород не розумію
Koful 
Поважний учасник


З нами з: 05.12.16
Востаннє: 18.10.18
Повідомлень: 213

2018-03-06 17:37  
staf777 написано:
Фільм не дуже сподобався за що стільки нагород не розумію

За такою тенденцією скоро будуть брати Оскара фільми на кшталт "зеленого слоніка" ))

P.S. краще передивлюсь Людину амфібію

IAmHusein 
Новенький


З нами з: 01.04.13
Востаннє: 16.10.18
Повідомлень: 9

2018-03-06 19:39  
Оскар цей фільм отримав "за сукупністю" досягнень нестандартного режисера Гільєрмо Дель Торо.
Сама стрічка - рідкісне лайно.

Bod_zik99 
VIP


З нами з: 28.12.13
Востаннє: 18.10.18
Повідомлень: 1430

2018-03-06 19:46  
Фільм гарний, особливо візуально, впринципі як і всі попередні роботи Дель Торо.Сценарій і гра акторів теж хороші.Я от ще не розумію за що цьому фільму дали статуетку за кращий музичний супровід, бо я навіть не пам'ятаю чи була тут взагалі хоч якась музика Happy
StAn16 
Свій


З нами з: 29.01.11
Востаннє: 18.10.18
Повідомлень: 112

2018-03-06 20:38  
Чудове кіно, одна з кращих робіт Дель Торо, проте видно, що подобається не всім. Ті хто бачив "Лабіринт Фавна" - точно не пожалкуєте. Музичний супровід і атмосфера 60-х - чарівні; акторська гра на висоті.
9/10

bot 
робот


З нами з: 30.09.07
Востаннє: 26.05.05
Повідомлень: 19962

2018-03-07 02:52  
Тему перенесено з Анонси релізів до форуму Фільми в HD


staf777

olik78 
Новенький


З нами з: 08.01.15
Востаннє: 18.10.18
Повідомлень: 8

2018-03-07 03:34  
Питаннячко, а буде кращий звук?
igor911 
Відео Гуртом
Відео Гуртом


З нами з: 18.01.08
Востаннє: 19.10.18
Повідомлень: 11249

2018-03-07 14:20  
olik78 написано:
а буде кращий звук?

Імовірність появи ліцензійної доріжки написано:
BluRay - 50%;
DVD - 75%;

sania2011 
Поважний учасник


З нами з: 25.02.11
Востаннє: 18.10.18
Повідомлень: 186

2018-03-07 21:22  
Bod_zik99
Так він напівмюзікл

borisvv 
Новенький


З нами з: 05.08.10
Востаннє: 18.10.18
Повідомлень: 1

2018-03-07 21:26  
Все нове - добре забуте старе. Нагадало есесерівську "Людину-амфібію"...
llas 
Новенький


З нами з: 03.11.09
Востаннє: 27.09.18
Повідомлень: 1

2018-03-09 18:17  
Передивився. Йому до Людини-амфібії як до моря пішки
leicheman 
Відео Гуртом - підтримка та поширення
Відео Гуртом - підтримка та поширення


З нами з: 03.07.14
Востаннє: 18.10.18
Повідомлень: 2838

2018-03-16 01:28  
Bod_zik99 написано:
Я от ще не розумію за що цьому фільму дали статуетку за кращий музичний супровід, бо я навіть не пам'ятаю чи була тут взагалі хоч якась музика

Та ну , музичний супровід гарний та приємний і чудового "лягає" у стрічку.
Я навіть на гугл музиці завантажив собі альбом з саундтреками, що були у фільмі.

Uberwinder 
VIP


З нами з: 18.11.16
Востаннє: 18.10.18
Повідомлень: 267

2018-05-03 22:59  
Дуже гарний фільм з чудовим перекладом!
staf777 
Попереджень: 1
Попереджень: 1 


З нами з: 16.11.16
Востаннє: 18.10.18
Повідомлень: 1637

2018-05-18 13:19  
18.05.2018 реліз оновлено - замінено стереодоріжку з на 5.1 з 
Ваш часовий пояс: GMT + 2 Години

Нова тема   Відповісти