Нодаме Контабіле: Паризька глава / Nodame Cantabile: Paris-hen (2008) 720р Jap | Sub Ukr

Нові коментарі

Нова тема   Відповісти
Автор Повідомлення
BMK12 
Відео Гуртом - підтримка та поширення
Відео Гуртом - підтримка та поширення


З нами з: 13.04.09
Востаннє: 07.04.20
Повідомлень: 3529

2018-03-04 01:04  
Нодаме Контабіле: Паризька глава / Nodame Cantabile: Paris-hen (2008) 720р Jap | Sub Ukr

Нодаме Контабіле: Паризька глава / Nodame Cantabile: Paris-hen (2008) 720р Jap | Sub Ukr


Жанр: буденність, комедія, музичний, романтика
Країна: Японія

8.34 (3 921)
8.24 (52 796)

Кінокомпанія: J.C.Staff
Режисер: Кон Чіакі
Актори: Аяко Кавумі, Томокі Ішикі, Шинджі Огава, Масая Мацуказе та інші

Сюжет:
Після закінчення консерваторії у рідній Японії Нодаме та Чіакі вирушають до серця Європи – Парижу, щоб разом продовжити там навчання та зробити перші кроки у своїй професійній кар'єрі. Життя у чужій країні та початок вже зовсім іншого, дорослого, життя і справжніх випробувань, безперечно, змінять їх обох і їхні відносини. Одначе, крім труднощів, на них також чекають і нові зустрічі, нові друзі та безмежні перспективи.


Тривалість: 1 серія: 22:30 (цілком серій: 1-11 з 11)
Перелік серій
Епізод 1 - Урок 1
Епізод 2 - Урок 2
Епізод 3 - Урок 3
Епізод 4 - Урок 4
Епізод 5 - Урок 5
Епізод 6 - Урок 6
Епізод 7 - Урок 7
Епізод 8 - Урок 8
Епізод 9 - Урок 9
Епізод 10 - Урок 10
Епізод 11 - Урок 11
Якість:
Відео:
кодек:
розмір кадру: 1280 х 720
бітрейт: ~1970 кб/с

Аудіо:
мова: японська
переклад: оригінал
кодек: Vorbis 2.0
бітрейт: 192 кб/с

Субтитри:
мова: українська
тип: програмні (м'які)
формат: *.
Info
General
Unique ID : 201941313129639751431599333318144232808 (0x97EC7B713B422E06AB9E30F929C70D68)
Complete name : T:\AniTube [Nodame Cantabile - Paris] UKR SUB\Nodame_Cantabile_Paris_Chapter_01_ua.
Format :
Format version : Version 4 / Version 2
File size : 348 MiB
Duration : 22 min 29 s
Overall bit rate mode : Variable
Overall bit rate : 2 166 kb/s
Movie name : [BSS] Nodame Cantabile Paris-hen - 01
Encoded date : UTC 2018-03-02 16:24:05
Writing application : v15.0.0 ('Duel with the Devil') 32-bit
Writing library : libebml v1.3.5 + v1.4.5
Attachments : ParmaPetit-Normal.ttf / centabel.ttf / laurencb.ttf / LYMPHATI.TTF

Video
ID : 2
Format : AVC
Format/Info : Advanced Video Codec
Format profile : [email protected]
Format settings, CABAC : Yes
Format settings, ReFrames : 16 frames
Codec ID : V_MPEG4/ISO/AVC
Duration : 22 min 29 s
Bit rate : 1 973 kb/s
Width : 1 280 pixels
Height : 720 pixels
Display aspect ratio : 16:9
Frame rate mode : Constant
Frame rate : 23.976 (23976/1000) FPS
Color space : YUV
Chroma subsampling : 4:2:0
Bit depth : 8 bits
Scan type : Progressive
Bits/(Pixel*Frame) : 0.089
Stream size : 318 MiB (91%)
Title : Nodame Cantabile Paris-hen - 01 (h264)
Writing library : core 65 r998M 6768543
Encoding settings : cabac=1 / ref=16 / deblock=1:-1:-1 / analyse=0x3:0x133 / me=umh / subme=9 / psy_rd=1.0:0.0 / mixed_ref=1 / me_range=24 / chroma_me=1 / trellis=2 / 8x8dct=1 / cqm=0 / deadzone=21,11 / chroma_qp_offset=-2 / threads=6 / nr=0 / decimate=0 / mbaff=0 / bframes=6 / b_pyramid=1 / b_adapt=2 / b_bias=0 / direct=3 / wpredb=1 / keyint=250 / keyint_min=25 / scenecut=40(pre) / rc=2pass / bitrate=1973 / ratetol=1.0 / qcomp=0.60 / qpmin=10 / qpmax=51 / qpstep=4 / cplxblur=20.0 / qblur=0.5 / ip_ratio=1.40 / pb_ratio=1.30 / aq=1:1.00
Language : English
Default : Yes
Forced : No

Audio
ID : 3
Format : Vorbis
Format settings, Floor : 1
Codec ID : A_VORBIS
Duration : 22 min 29 s
Bit rate mode : Variable
Bit rate : 192 kb/s
Channel(s) : 2 channels
Sampling rate : 48.0 kHz
Frame rate : 81.145 FPS (592 spf)
Compression mode : Lossy
Stream size : 30.1 MiB (9%)
Title : Japanese Stereo (Vorbis)
Writing library : aoTuV b5b (UTC 2008-07-22)
Language : Japanese
Default : Yes
Forced : No

Text
ID : 1
Format :
Codec ID : S_TEXT/
Codec ID/Info : Advanced Sub Station Alpha
Duration : 22 min 15 s
Bit rate : 189 b/s
Count of elements : 394
Compression mode : Lossless
Stream size : 30.9 KiB (0%)
Default : Yes
Forced : No
Скріншоти
Переклад: Houkiboshi
Джерело: anitube.in.ua та uanime.org.ua
Особиста оцінка: 0 - не дивився

Перший сезон: Нодаме Кантабіле / Nodame Cantabile (сезон 1) (2007) 720р Ukr/Jap | Sub Ukr


Золотий реліз (завантажене не впливає на рейтинг)
 Трекер:    Зареєстрований   

Завантажити / скачати аніме українською



відео для новачків



 Зареєстрований:   2018-03-04 01:04
 Розмір:   3.72 GB 
 Оцінка аніме:   9.7/10 (Голосів: 3)
   
EvGaS 
Відео Гуртом - субтитрування
Відео Гуртом - субтитрування


З нами з: 27.02.12
Востаннє: 31.07.19
Повідомлень: 5669

2018-03-04 21:08  
Не настільки добре, як початкове, та трошки сюжетно зациклене. Але все ж перегляду варте однозначно: дуже рідко можна зустріти мультсеріали з настільки живою музикою (не чимось з якоїсь бібліотеки звуків-записів).
Вирок: прописати усім, кому слон на вусі не сидів.

ImfromUkraine 
VIP


З нами з: 18.02.12
Востаннє: 03.04.20
Повідомлень: 346

2018-03-08 19:57  
ще десь можна завантажити? 3 днi, 0 %
BMK12 
Відео Гуртом - підтримка та поширення
Відео Гуртом - підтримка та поширення


З нами з: 13.04.09
Востаннє: 07.04.20
Повідомлень: 3529

2018-03-08 21:04  
ImfromUkraine, є якісь зрушення?
ImfromUkraine 
VIP


З нами з: 18.02.12
Востаннє: 03.04.20
Повідомлень: 346

2018-03-09 21:36  
що тут, що з anitube - не бачить пiрiв))
Косячок справжній 
VIP


З нами з: 29.02.12
Востаннє: 04.04.20
Повідомлень: 1231

2019-06-05 14:08  
Не таке вигадливе, як перший сезон, проте, дивитися можна.
Дякую.

Ваш часовий пояс: GMT + 2 Години

Нова тема   Відповісти