Міські легенди / Urban Legend (1998) 1080p 2xUkr/Eng | Sub Eng

Нові коментарі

Нова тема   Відповісти
Останній раз роздавалося anarchotourist (2018-06-17)
Автор Повідомлення
boroznaya 
Попереджень: 1
Попереджень: 1 


З нами з: 02.11.12
Востаннє: 21.05.19
Повідомлень: 2965

2018-03-03 14:10  
Міські легенди / Urban Legend (1998) 1080p 2xUkr/Eng | Sub Eng

Міські легенди / Urban Legend (1998) 1080p 2xUkr/Eng | Sub Eng


«Те, у що ти не віриш, може тебе вбити!»


Жанр: жахи, трилер, детектив
Країна: США, Франція



Кінокомпанія: TriStar Pictures, Canal+ Droits Audiovisuels, Original Film, Phoenix Pictures
Режисер: Джеймі Бленкс
Актори: Алісія Віт, Джаред Лето, Ребекка Гейгарт, Майкл Розенбаум, Джошуа Джексон, Даніель Гарріс, Джон Невілл, Лоретта Дівайн,
Тара Рід, Наташа Грегсон Вагнер, Джуліан Річінгс, Роберт Інглунд

Сюжет:
Тихе студентське містечко сколихнула серія кривавих убивств, скоєних з безпрецедентною жорстокістю. Поліція не здогадується, що вони якимсь чином пов'язані, адже між цими жорстокими злочинами немає нічого спільного. Однак студентці Наталі вдалося виявити страшний зв'язок. На перший погляд, він здається неймовірним: у кожному вбивстві оживають міські легенди, страшні історії з сучасного фольклору, передавані з вуст у вуста. Ні викладачі, ні друзі не вірять дівчині... і стають наступними жертвами таємничого вбивці.


Тривалість: 01:39:39
Якість: 1080p

Відео:
кодек:
розмір кадру: 1920x800
бітрейт: 11,7 Мб/с

Аудіо # 1:
мова: українська
переклад: двоголосий закадровий
кодек: 2.0
бітрейт: 192 кб/с

Аудіо # 2:
мова: українська
переклад: двоголосий закадровий
кодек: 2.0
бітрейт: 192 кб/с
примітка: на проміжку 01:31:34 - 01:36:07 використано озвучення студії "1+1" через неповний запис з Нового каналу

Аудіо # 3:
мова: англійська
переклад: оригінал
кодек: 5.1
бітрейт: 640 кб/с

Субтитри:
мова: англійська
тип: програмні (м'які)
формат: *.srt
Info
D:\Завантаження\Urban Legend (1998) [2xUkr, Eng, sub Eng] 1080p [Hurtom].
General
Unique ID : 131137712790038297938853570698570786356 (0x62A8346D1F62E424AEB07F1F99066634)
Complete name : D:\Завантаження\Urban Legend (1998) [2xUkr, Eng, sub Eng] 1080p [Hurtom].
Format :
Format version : Version 4 / Version 2
File size : 8.86 GiB
Duration : 1h 39mn
Overall bit rate : 12.7 Mbps
Encoded date : UTC 2018-03-03 10:05:44
Writing application : v20.0.0 ('I Am The Sun') 64-bit
Writing library : libebml v1.3.5 + v1.4.8
DURATION : 01:34:11.158000000
NUMBER_OF_FRAMES : 990
NUMBER_OF_BYTES : 32048
_STATISTICS_WRITING_APP : v20.0.0 ('I Am The Sun') 64-bit
_STATISTICS_WRITING_DATE_UTC : 2018-03-03 10:05:44
_STATISTICS_TAGS : BPS DURATION NUMBER_OF_FRAMES NUMBER_OF_BYTES

Video #1
ID : 1
Format : AVC
Format/Info : Advanced Video Codec
Format profile : [email protected]
Format settings, CABAC : Yes
Format settings, ReFrames : 5 frames
Codec ID : V_MPEG4/ISO/AVC
Duration : 1h 39mn
Bit rate : 11.7 Mbps
Width : 1 920 pixels
Height : 800 pixels
Display aspect ratio : 2.40:1
Frame rate : 23.976 fps
Color space : YUV
Chroma subsampling : 4:2:0
Bit depth : 8 bits
Scan type : Progressive
Bits/(Pixel*Frame) : 0.318
Stream size : 7.97 GiB (90%)
Title : ViDEO
Writing library : core 60 r901M 58d7d06
Encoding settings : cabac=1 / ref=5 / deblock=1:0:0 / analyse=0x3:0x113 / me=umh / subme=6 / rdcmp=psy / brdo=1 / mixed_ref=1 / me_range=16 / chroma_me=1 / trellis=1 / 8x8dct=1 / cqm=2 / deadzone=21,11 / chroma_qp_offset=0 / threads=3 / nr=0 / decimate=1 / mbaff=0 / bframes=13 / b_pyramid=1 / b_adapt=1 / b_bias=0 / direct=3 / wpredb=1 / bime=1 / keyint=250 / keyint_min=25 / scenecut=40(pre) / rc=2pass / bitrate=11703 / ratetol=1.0 / rceq='blurCplx^(1-qComp)' / qcomp=1.00 / qpmin=10 / qpmax=51 / qpstep=4 / cplxblur=20.0 / qblur=0.5 / ip_ratio=1.40 / pb_ratio=1.30 / aq=2:1.00
Language : English
Default : Yes
Forced : No
DURATION : 01:39:38.899000000
NUMBER_OF_FRAMES : 143350
NUMBER_OF_BYTES : 8746549252
_STATISTICS_WRITING_APP : v20.0.0 ('I Am The Sun') 64-bit
_STATISTICS_WRITING_DATE_UTC : 2018-03-03 10:05:44
_STATISTICS_TAGS : BPS DURATION NUMBER_OF_FRAMES NUMBER_OF_BYTES

Audio #2
ID : 2
Format : AC-3
Format/Info : Audio Coding 3
Mode extension : CM (complete main)
Codec ID : A_AC3
Duration : 1h 39mn
Bit rate mode : Constant
Bit rate : 192 Kbps
Channel(s) : 2 channels
Channel positions : Front: L R
Sampling rate : 48.0 KHz
Bit depth : 16 bits
Compression mode : Lossy
Stream size : 137 MiB (2%)
Title : Двоголосий закадровий, 1+1
Language : Ukrainian
Default : Yes
Forced : No

Audio #3
ID : 3
Format : AC-3
Format/Info : Audio Coding 3
Mode extension : CM (complete main)
Codec ID : A_AC3
Duration : 1h 39mn
Bit rate mode : Constant
Bit rate : 192 Kbps
Channel(s) : 2 channels
Channel positions : Front: L R
Sampling rate : 48.0 KHz
Bit depth : 16 bits
Compression mode : Lossy
Stream size : 137 MiB (2%)
Title : Двоголосий закадровий, Новий канал
Language : Ukrainian
Default : No
Forced : No

Audio #4
ID : 4
Format : AC-3
Format/Info : Audio Coding 3
Mode extension : CM (complete main)
Codec ID : A_AC3
Duration : 1h 39mn
Bit rate mode : Constant
Bit rate : 640 Kbps
Channel(s) : 6 channels
Channel positions : Front: L C R, Side: L R, LFE
Sampling rate : 48.0 KHz
Bit depth : 16 bits
Compression mode : Lossy
Stream size : 456 MiB (5%)
Title : 5.1 640 Kbps
Language : English
Default : No
Forced : No

Text #5
ID : 5
Format : UTF-8
Codec ID : S_TEXT/UTF8
Codec ID/Info : UTF-8 Plain Text
Language : English
Default : Yes
Forced : No
Скріншоти





Подяка панам servus12, Hulk1987 за запис звуку з ТБ та п.omm за синхронізацію.

Джерело:
Особиста оцінка: 8 - мені сподобалося


Срібний реліз (на рейтинг впливає 50% завантаженого)
 Трекер:    Зареєстрований   

Завантажити / скачати фільм українською



відео для новачків



 Зареєстрований:   2018-03-05 14:48
 Розмір:   8.86 GB 
 Оцінка фільму:   7.8/10 (Голосів: 6)
   
Інші релізи
bot 
робот


З нами з: 30.09.07
Востаннє: 26.05.05
Повідомлень: 21364

2018-03-05 14:44  
Тему перенесено з Анонси релізів до форуму Фільми в HD


boroznaya

vanya135 
Новенький


З нами з: 16.07.17
Востаннє: 15.05.19
Повідомлень: 2

2018-03-05 16:03  
Крутий фільм.
boroznaya 
Попереджень: 1
Попереджень: 1 


З нами з: 02.11.12
Востаннє: 21.05.19
Повідомлень: 2965

2018-03-05 16:19  
vanya135 написано:
Крутий фільм.

Так, Ваша правда. Дуже шкода, що немає українського озвучення до 2-ї та 3-ї частин...

Ваш часовий пояс: GMT + 2 Години

Нова тема   Відповісти