Капітан Туссі (1991)

Нові коментарі

Нова тема   Відповісти
Автор Повідомлення
Anonymous 







2018-03-03 11:52  
Капітан Туссі (1991)

Капітан Туссі (1991)


Жанр: анімація, пригодницький
Країна: Україна

Кінокомпанія: УКАФ
Режисер: Юрій Скирда
Сюжет:
В далекі часи жила собі дівчинка, яка любила слухати розповіді свого батька про далекі морські подорожі та захоплюючі пригоди. Ця дівчинка мріяла, що можливо і їй колись доведеться стати на капітанський місток морського корабля.


Тривалість: 00:09:32
Якість:
Відео:
кодек:
розмір кадру: 768 x 592
бітрейт: 1800 кб/с

Аудіо:
мова: українська
переклад: професійний дубльований
кодек: 2.0
бітрейт: 192 кб/с

Субтитри:
мова: українська
переклад: [Набраний з аудіо]
формат: .srt
Скріншоти







Порівняння скріншотів з іншою роздачею
1.Тут більший кадр та немає лого телеканалу + є субтитри
2.У релізі https://toloka.to/t53340 картинка насиченіша
http://screenshotcomparison.com/comparison/133479
МедіаІнфо
Complete name : E:\Капітан Туссі (Captain Tussy) .
Format :
Format version : Version 4 / Version 2
File size : 136 MiB
Duration : 9 min 31 s
Overall bit rate : 1 990 kb/s
Encoded date : UTC 2018-03-03 09:54:30
Writing application : v21.0.0 ('Tardigrades Will Inherit The Earth') 64-bit
Writing library : libebml v1.3.5 + v1.4.8

Video
ID : 1
Format : AVC
Format/Info : Advanced Video Codec
Format profile : [email protected]
Format settings : 5 Ref Frames
Format settings, CABAC : No
Format settings, ReFrames : 5 frames
Format settings, GOP : M=1, N=2
Codec ID : V_MPEG4/ISO/AVC
Duration : 9 min 31 s
Bit rate : 1 800 kb/s
Width : 768 pixels
Height : 592 pixels
Display aspect ratio : 1.297
Frame rate mode : Constant
Frame rate : 25.000 FPS
Color space : YUV
Chroma subsampling : 4:2:0
Bit depth : 8 bits
Scan type : Progressive
Bits/(Pixel*Frame) : 0.158
Stream size : 122 MiB (90%)
Writing library : core 120
Encoding settings : cabac=0 / ref=5 / deblock=1:0:0 / analyse=0x1:0x131 / me=umh / subme=7 / psy=1 / psy_rd=1.00:0.40 / mixed_ref=1 / me_range=16 / chroma_me=1 / trellis=0 / 8x8dct=0 / cqm=0 / deadzone=21,11 / fast_pskip=0 / chroma_qp_offset=-2 / threads=12 / sliced_threads=0 / nr=0 / decimate=1 / interlaced=0 / bluray_compat=0 / constrained_intra=0 / bframes=0 / weightp=0 / keyint=75 / keyint_min=26 / scenecut=40 / intra_refresh=0 / rc_lookahead=40 / rc=2pass / mbtree=0 / bitrate=1800 / ratetol=1.0 / qcomp=0.60 / qpmin=10 / qpmax=51 / qpstep=4 / cplxblur=20.0 / qblur=0.5 / vbv_maxrate=2000 / vbv_bufsize=2000 / nal_hrd=none / ip_ratio=1.40 / aq=1:1.00
Language : Ukrainian
Default : Yes
Forced : No
Color range : Limited
Color primaries : BT.601 NTSC
Transfer characteristics : BT.709
Matrix coefficients : BT.601

Audio
ID : 2
Format :
Format/Info : Advanced Audio Codec
Format profile : LC
Codec ID : A_AAC-2
Duration : 9 min 31 s
Bit rate : 192 kb/s
Channel(s) : 2 channels
Channel positions : Front: L R
Sampling rate : 44.1 kHz
Frame rate : 43.066 FPS (1024 SPF)
Compression mode : Lossy
Stream size : 13.1 MiB (10%)
Title : Оригінал - [Професійно дубльований]
Language : Ukrainian
Default : Yes
Forced : No

Text
ID : 3
Format : UTF-8
Codec ID : S_TEXT/UTF8
Codec ID/Info : UTF-8 Plain Text
Duration : 8 min 42 s
Bit rate : 29 b/s
Count of elements : 37
Stream size : 1.87 KiB (0%)
Title : Українська
Language : Ukrainian
Default : Yes
Forced : No
Джерело:


Золотий реліз (завантажене не впливає на рейтинг)
 Трекер:    Зареєстрований   

Завантажити / скачати український мультфільм



відео для новачків



 Зареєстрований:   2018-03-03 11:56
 Розмір:   136 MB 
 Оцінка мультфільму:   8.5/10 (Голосів: 6)
   
hetzendorf 
Забанено
Забанено


З нами з: 23.07.15
Востаннє: 02.11.19
Повідомлень: 2572

2018-03-18 23:47  
Подібну муть тоннами знімали у совку. Це ж треба, у 1991 році на УКАФ знайшлися такі підлабузники Маркса прославляти @[email protected] Проблювався, дякую >_<
1/10

sanduanton 
Новенький


З нами з: 27.06.19
Востаннє: 13.11.19
Повідомлень: 4

2019-07-25 11:09  
Thanks so much for this Ukrainian Anime. Hope a reseed.
lem009 
Новенький


З нами з: 04.11.08
Востаннє: 12.11.19
Повідомлень: 7

2019-08-29 21:50  
hetzendorf
Смердить i досi вiд тебе...

hetzendorf 
Забанено
Забанено


З нами з: 23.07.15
Востаннє: 02.11.19
Повідомлень: 2572

2019-08-29 21:56  
lem009 написано:
Смердить i досi вiд

твого маркса

Ваш часовий пояс: GMT + 2 Години

Нова тема   Відповісти