Година пік / Rush Hour (1998) 1080p Ukr/Eng | Sub Eng

Нові коментарі

Нова тема   Відповісти
Автор Повідомлення
Argentum 
Поважний учасник


З нами з: 25.09.11
Востаннє: 19.10.19
Повідомлень: 213

2018-03-03 12:52  
Година пік / Rush Hour (1998) 1080p Ukr/Eng | Sub Eng

Година пік / Rush Hour (1998) 1080p Ukr/Eng | Sub Eng


Жанр: кримінальний, бойовик, комедія
Країна: США



Кінокомпанія: New Line Cinema, Roger Birnbaum Productions
Режисер: Брет Ретнер
Актори: Джекі Чан, Кріс Такер, Кен Люн, Кріс Пенн, Ці Ма, Філіп Бейкер Гол, Рекс Лін, Том Вілкінсон, Марк Ролстон, Елізабет Пенья та інші.

Сюжет:
У Лос-Анджелесі лиходії викрадають дочку китайського консула. Консул викликає в Америку свою людину, щоб той взяв участь у розслідуванні. Агенти ФБР звернулися до поліції з проханням виділити їм самого нікчемного співробітника, щоб той взяв китайця на себе й показав йому визначні пам'ятки, а головне, не дозволив втручатися в їхні справи. Їм надається самий балакучий поліцейський Картер. Природно, після ряду розбіжностей і непорозумінь вони об'єднують зусилля й всерйоз беруться за визволення заручниці.



Тривалість: 01:37:49
Якість:
Відео:
кодек:
розмір кадру: 1920 х 784
бітрейт: 12.5 Мб/с

Аудіо # 1:
мова: українська
переклад: двоголосий закадровий
кодек: 5.1
бітрейт: 448 кб/с

Аудіо # 2:
мова: англійська
переклад: оригінал
кодек: 5.1
бітрейт: 640 кб/с

Субтитри:
мова: англійська
тип: програмні (м'які)
формат: *.srt
Info
General
Unique ID : 61202861601781923647142806789875251836 (0x2E0B3E0CE28025EC824DCBF89BA33A7C)
Complete name : Rush Hour/Rush Hour (1998) [Ukr, Eng] 1080p [Hurtom].
Format :
Format version : Version 4 / Version 2
File size : 9.28 GiB
Duration : 1 h 37 min
Overall bit rate : 13.6 Mb/s
Movie name : Rush Hour (1998)
Encoded date : UTC 2018-03-01 21:00:58
Writing application : v21.0.0 ('Tardigrades Will Inherit The Earth') 64-bit
Writing library : libebml v1.3.5 + v1.4.8
Attachments : 130717213201171790_f0_0.jpg

Video
ID : 1
Format : AVC
Format/Info : Advanced Video Codec
Format profile : [email protected]
Format settings : CABAC / 4 Ref Frames
Format settings, CABAC : Yes
Format settings, ReFrames : 4 frames
Codec ID : V_MPEG4/ISO/AVC
Duration : 1 h 37 min
Bit rate : 12.5 Mb/s
Width : 1 920 pixels
Height : 784 pixels
Display aspect ratio : 2.40:1
Frame rate mode : Constant
Frame rate : 23.976 (24000/1001) FPS
Color space : YUV
Chroma subsampling : 4:2:0
Bit depth : 8 bits
Scan type : Progressive
Bits/(Pixel*Frame) : 0.346
Stream size : 8.54 GiB (92%)
Title : AVC @ 12.5 Mbps
Writing library : core 146 r2538 121396c
Encoding settings : cabac=1 / ref=4 / deblock=1:-1:-1 / analyse=0x3:0x133 / me=umh / subme=11 / psy=1 / psy_rd=1.15:0.00 / mixed_ref=1 / me_range=32 / chroma_me=1 / trellis=2 / 8x8dct=1 / cqm=0 / deadzone=21,11 / fast_pskip=0 / chroma_qp_offset=-2 / threads=12 / lookahead_threads=3 / sliced_threads=0 / nr=0 / decimate=1 / interlaced=0 / bluray_compat=0 / constrained_intra=0 / bframes=12 / b_pyramid=2 / b_adapt=2 / b_bias=0 / direct=3 / weightb=1 / open_gop=0 / weightp=2 / keyint=250 / keyint_min=23 / scenecut=40 / intra_refresh=0 / rc_lookahead=50 / rc=2pass / mbtree=1 / bitrate=12500 / ratetol=1.0 / qcomp=0.60 / qpmin=0 / qpmax=69 / qpstep=4 / cplxblur=20.0 / qblur=0.5 / ip_ratio=1.40 / aq=1:1.00
Language : English
Default : Yes
Forced : Yes

Audio #1
ID : 2
Format : AC-3
Format/Info : Audio Coding 3
Codec ID : A_AC3
Duration : 1 h 37 min
Bit rate mode : Constant
Bit rate : 448 kb/s
Channel(s) : 6 channels
Channel positions : Front: L C R, Side: L R, LFE
Sampling rate : 48.0 kHz
Frame rate : 31.250 FPS (1536 SPF)
Bit depth : 16 bits
Compression mode : Lossy
Stream size : 313 MiB (3%)
Title : 5.1 @ 448 Kbps # Novy
Language : Ukrainian
Service kind : Complete Main
Default : Yes
Forced : Yes

Audio #2
ID : 3
Format : AC-3
Format/Info : Audio Coding 3
Codec ID : A_AC3
Duration : 1 h 37 min
Bit rate mode : Constant
Bit rate : 640 kb/s
Channel(s) : 6 channels
Channel positions : Front: L C R, Side: L R, LFE
Sampling rate : 48.0 kHz
Frame rate : 31.250 FPS (1536 SPF)
Bit depth : 16 bits
Compression mode : Lossy
Stream size : 448 MiB (5%)
Title : 5.1 @ 640 Kbps
Language : English
Service kind : Complete Main
Default : No
Forced : No

Text
ID : 4
Format : UTF-8
Codec ID : S_TEXT/UTF8
Codec ID/Info : UTF-8 Plain Text
Duration : 1 h 35 min
Bit rate : 72 b/s
Count of elements : 1430
Stream size : 51.2 KiB (0%)
Language : English
Default : No
Forced : No

Menu
00:00:00.000 : en:Opening Credits
00:02:28.022 : en:"Where Is Juntao?"
00:04:01.741 : en:Hong Kong, 1997
00:06:10.787 : en:C4
00:09:28.901 : en:School;S Out
00:12:03.305 : en:Partners
00:15:16.957 : en:Going to the Show
00:17:11.697 : en:G-14 Classified
00:20:01.700 : en:Carter, Fbi
00:22:53.580 : en:Supercops
00:27:04.456 : en:The United States of James Carter
00:29:16.963 : en:Azteca Shakedown
00:34:39.577 : en:Quick Hands
00:35:50.481 : en:Meet Inspector Li
00:38:46.907 : en:Get Carter
00:41:35.326 : en:Pickup on Sixth Street
00:43:32.359 : en:The Detonator
00:46:48.889 : en:Practice Makes Perfect
00:48:42.294 : en:"Give Me the Name"
00:51:11.902 : en:The Foo Chow
00:54:45.865 : en:Camel's Hump
00:57:35.076 : en:One From Column B
00:59:36.281 : en:"Fight Me Like a Man"
01:02:47.680 : en:Room Service
01:06:05.753 : en:Case Closed
01:08:14.131 : en:Juntao Calls
01:10:50.162 : en:A Lesson in Honor
01:13:07.925 : en:Getting the Drop on the Drop
01:16:33.380 : en:"Juntao!"
01:18:47.139 : en:"Thank You and Good Night"
01:22:06.755 : en:Saving Vase
01:23:43.977 : en:"Meet Me on the Road"
01:25:58.570 : en:Leave Them in Stitches
01:28:01.276 : en:A Banner Night
01:29:57.392 : en:Three Little Words
01:32:10.775 : en:End Credits/Bloopers
01:35:16.836 : en:Tail Credits
Скріншоти





Подяка панам slavik_v_z, Sando7 за запис з ТБ та пану patriot2305 за синхронізацію.

Джерело: &
Особиста оцінка: 8 - мені сподобалося



Срібний реліз (на рейтинг впливає 50% завантаженого)
 Трекер:    Зареєстрований   

Завантажити / скачати фільм українською



відео для новачків



 Зареєстрований:   2018-03-03 12:52
 Розмір:   9.28 GB 
 Оцінка фільму:   9.8/10 (Голосів: 19)
   
Anonymous... 
Свій


З нами з: 11.01.18
Востаннє: 12.09.19
Повідомлень: 146

2018-03-04 00:18  
Інші частини робитимете в 1080?

Додано через 1 годину 28 хвилин 43 секунди:

Argentum написано:
Планую десь на протязі наступних декількох днів викласти. Вони вже є готові

О, клас, буде однією роздачею?

Argentum 
Поважний учасник


З нами з: 25.09.11
Востаннє: 19.10.19
Повідомлень: 213

2018-03-04 00:20  
Anonymous... написано:
Інші частини робитимете в 1080?

Планую десь в наступні декілька днів викласти 2 та 3 частини

mutomba 
VIP


З нами з: 20.10.13
Востаннє: 15.10.19
Повідомлень: 343

2018-03-04 14:11  
Трилогія в гарній якості - давно таке хотів. Треба в колекцію!
Argentum 
Поважний учасник


З нами з: 25.09.11
Востаннє: 19.10.19
Повідомлень: 213

2018-03-04 18:52  
Anonymous... написано:
О, клас, буде однією роздачею?

Ні. Кожна частина буде окремою роздачею.

Ваш часовий пояс: GMT + 2 Години

Нова тема   Відповісти