Крампус: Викрадач Різдва / Krampus (2015) Remux 1080p Ukr/Eng | Sub Eng

Нові коментарі

Нова тема   Відповісти
Автор Повідомлення
staf777 
Відео Гуртом - підтримка та поширення
Відео Гуртом - підтримка та поширення


З нами з: 16.11.16
Востаннє: 22.05.19
Повідомлень: 2373

2018-03-02 16:44  
Крампус: Викрадач Різдва / Krampus (2015) Remux 1080p Ukr/Eng | Sub Eng

Крампус: Викрадач Різдва / Krampus (2015) Remux 1080p Ukr/Eng | Sub Eng


Жанр: комедія, жахи, фентезі
Країна: США



Кінокомпанія: Legendary Pictures, Universal Pictures
Режисер: Майкл Доґерті
Актори: Адам Скотт, Тоні Коллетт, Еллісон Толман, Стефанія Овен, Емджей Ентоні, Девід Кочнер, Кончата Феррелл, Кріста Стадлер, Люк Гокер

Сюжет:
Історія про демона, який під час Різдва вишукує неслухняних дітей, щоб покарати їх.


Тривалість: 01:37:40
Якість: Remux 1080p
Відео:
кодек:
розмір кадру: 1920x1080
бітрейт: 35 Mб/с

Аудіо # 1:
мова: українська
переклад: професійний дубльований
кодек: 2.0
бітрейт: 192 кб/с

Аудіо # 2:
мова: англійська
переклад: оригінал
кодек: -HD MA 5.1
бітрейт: 3575 кб/с

Субтитри:
мова: англійська
тип: програмні (м'які)
формат: *.srt
Info
General
Unique ID : 212669974116910251013581510668442662426 (0x9FFEBF44B91E5CBE999AFCECEE93F61A)
Complete name : H:\Майбутні релізи\Krampus (2015) Remux 1080p [Ukr][Eng][Sub Eng][Hurtom].
Format :
Format version : Version 4 / Version 2
File size : 26.5 GiB
Duration : 1 h 37 min
Overall bit rate mode : Variable
Overall bit rate : 38.8 Mb/s
Movie name : Krampus (2015) Remux 1080p [Ukr][Eng][Sub Eng][Hurtom]
Encoded date : UTC 2018-03-04 17:39:37
Writing application : v9.8.0 ('Kuglblids') 64bit
Writing library : libebml v1.3.4 + v1.4.5

Video
ID : 1
Format : AVC
Format/Info : Advanced Video Codec
Format profile : [email protected]
Format settings, CABAC : Yes
Format settings, ReFrames : 4 frames
Codec ID : V_MPEG4/ISO/AVC
Duration : 1 h 37 min
Bit rate mode : Variable
Bit rate : 35.0 Mb/s
Maximum bit rate : 37.0 Mb/s
Width : 1 920 pixels
Height : 1 080 pixels
Display aspect ratio : 16:9
Frame rate mode : Constant
Frame rate : 23.976 (24000/1001) FPS
Color space : YUV
Chroma subsampling : 4:2:0
Bit depth : 8 bits
Scan type : Progressive
Bits/(Pixel*Frame) : 0.704
Stream size : 23.9 GiB (90%)
Language : English
Default : No
Forced : No

Audio #1
ID : 2
Format : AC-3
Format/Info : Audio Coding 3
Mode extension : CM (complete main)
Format settings, Endianness : Big
Codec ID : A_AC3
Duration : 1 h 37 min
Bit rate mode : Constant
Bit rate : 192 kb/s
Channel(s) : 2 channels
Channel positions : Front: L R
Sampling rate : 48.0 kHz
Frame rate : 31.250 FPS (1536 spf)
Bit depth : 16 bits
Compression mode : Lossy
Stream size : 134 MiB (0%)
Title : 2.0 @ 192 kbps
Language : Ukrainian
Default : Yes
Forced : Yes

Audio #2
ID : 3
Format :
Format/Info : Digital Theater Systems
Format profile : MA / Core
Mode : 16
Format settings, Endianness : Big
Codec ID : A_DTS
Duration : 1 h 37 min
Bit rate mode : Variable / Constant
Bit rate : 3 575 kb/s / 1 509 kb/s
Channel(s) : 6 channels
Channel positions : Front: L C R, Side: L R, LFE
Sampling rate : 48.0 kHz
Frame rate : 93.750 FPS (512 spf)
Bit depth : 24 bits
Compression mode : Lossless / Lossy
Stream size : 2.44 GiB (9%)
Language : English
Default : No
Forced : No

Text
ID : 4
Format : UTF-8
Codec ID : S_TEXT/UTF8
Codec ID/Info : UTF-8 Plain Text
Duration : 1 h 28 min
Bit rate : 48 b/s
Count of elements : 958
Stream size : 31.3 KiB (0%)
Language : English
Default : No
Forced : No

Menu
00:00:00.000 : en:Chapter 01
00:03:20.700 : en:Chapter 02
00:07:16.686 : en:Chapter 03
00:14:18.065 : en:Chapter 04
00:20:02.576 : en:Chapter 05
00:27:26.603 : en:Chapter 06
00:34:15.845 : en:Chapter 07
00:37:44.303 : en:Chapter 08
00:42:01.393 : en:Chapter 09
00:45:11.959 : en:Chapter 10
00:50:29.860 : en:Chapter 11
00:56:07.030 : en:Chapter 12
01:00:24.245 : en:Chapter 13
01:05:34.931 : en:Chapter 14
01:09:58.944 : en:Chapter 15
01:14:38.515 : en:Chapter 16
01:18:30.080 : en:Chapter 17
01:23:17.659 : en:Chapter 18
01:27:44.801 : en:Chapter 19
01:32:27.750 : en:Chapter 20
Скріншоти






Джерело: &


Золотий реліз (завантажене не впливає на рейтинг)
 Трекер:    Зареєстрований   

Завантажити / скачати фільм українською



відео для новачків



 Зареєстрований:   2018-03-05 15:44
 Розмір:   26.45 GB 
 Оцінка фільму:   8.1/10 (Голосів: 13)
   
bot 
робот


З нами з: 30.09.07
Востаннє: 26.05.05
Повідомлень: 21365

2018-03-05 15:44  
Тему перенесено з Анонси релізів до форуму Фільми в HD


staf777

Ваш часовий пояс: GMT + 2 Години

Нова тема   Відповісти