Красиво піти / Going in Style (2017) Remux 1080p Ukr/Eng | Sub Eng

Нові коментарі

Нова тема   Відповісти
Автор Повідомлення
staf777 
Попереджень: 1
Попереджень: 1 


З нами з: 16.11.16
Востаннє: 18.11.18
Повідомлень: 1756

2018-03-02 15:32  
Красиво піти / Going in Style (2017) Remux 1080p Ukr/Eng | Sub Eng

Красиво піти / Going in Style (2017) Remux 1080p Ukr/Eng | Sub Eng


Жанр: комедія, кримінальний
Країна: США



Кінокомпанія: Metro-Goldwyn-Mayer (MGM), New Line Cinema, Warner Bros. Pictures
Режисер: Зак Брафф
Актори: Морган Фрімен, Джої Кінг, Енн-Маргрет, Крістофер Лойд, Майкл Кейн, Пітер Серафіновіч, Метт Діллон та інші

Сюжет:
Головні герої фільму – троє друзів Віллі, Джо і Ел. Вони вели тихе і спокійне життя пенсіонерів, але одного разу з їх пенсійним фондом трапляється неприємна історія, і гроші, призначені для пенсійних виплат, заморожують. Тому друзі вирішують пограбувати банк, з вини якого вони позбулися своїх грошей.


Тривалість: 01:36:25
Якість: Remux 1080p
Відео:
кодек:
розмір кадру: 1920x1080
бітрейт: 31.7 Mб/с

Аудіо # 1:
мова: українська
переклад: професійний дубльований
кодек: 2.0
бітрейт: 192 кб/с

Аудіо # 2:
мова: англійська
переклад: оригінал
кодек: -HD MA 5.1
бітрейт: 3840 кб/с

Субтитри: (Forced)
мова: українська
тип: програмні (м'які)
формат: *.srt

Субтитри:
мова: англійська
тип: програмні (м'які)
формат: *.srt
Info
General
Unique ID : 248508388222206337289414877637320612635 (0xBAF4F98168623F06905165B71C439B1B)
Complete name : H:\» HD українською » Фільми в HD\Комедія\Going in Style (2017) Remux 1080p [Ukr][Eng][Sub Eng][Hurtom].
Format :
Format version : Version 4 / Version 2
File size : 24.0 GiB
Duration : 1 h 36 min
Overall bit rate mode : Variable
Overall bit rate : 35.6 Mb/s
Movie name : Going in Style (2017) Remux 1080p [Ukr][Eng][Sub Eng][Hurtom]
Encoded date : UTC 2018-03-03 10:42:27
Writing application : v9.8.0 ('Kuglblids') 64bit
Writing library : libebml v1.3.4 + v1.4.5

Video
ID : 1
Format : AVC
Format/Info : Advanced Video Codec
Format profile : [email protected]
Format settings, CABAC : Yes
Format settings, ReFrames : 4 frames
Codec ID : V_MPEG4/ISO/AVC
Duration : 1 h 36 min
Bit rate mode : Variable
Bit rate : 31.7 Mb/s
Maximum bit rate : 34.0 Mb/s
Width : 1 920 pixels
Height : 1 080 pixels
Display aspect ratio : 16:9
Frame rate mode : Constant
Frame rate : 23.976 (24000/1001) FPS
Color space : YUV
Chroma subsampling : 4:2:0
Bit depth : 8 bits
Scan type : Progressive
Bits/(Pixel*Frame) : 0.637
Stream size : 21.3 GiB (89%)
Language : English
Default : Yes
Forced : No

Audio #1
ID : 2
Format : AC-3
Format/Info : Audio Coding 3
Mode extension : CM (complete main)
Format settings, Endianness : Big
Codec ID : A_AC3
Duration : 1 h 36 min
Bit rate mode : Constant
Bit rate : 192 kb/s
Channel(s) : 2 channels
Channel positions : Front: L R
Sampling rate : 44.1 kHz
Frame rate : 28.711 FPS (1536 spf)
Bit depth : 16 bits
Compression mode : Lossy
Stream size : 132 MiB (1%)
Title : [UA-DUB]
Language : Ukrainian
Default : Yes
Forced : Yes

Audio #2
ID : 3
Format :
Format/Info : Digital Theater Systems
Format profile : MA / Core
Mode : 16
Format settings, Endianness : Big
Codec ID : A_DTS
Duration : 1 h 36 min
Bit rate mode : Variable / Constant
Bit rate : 3 840 kb/s / 1 509 kb/s
Channel(s) : 6 channels
Channel positions : Front: L C R, Side: L R, LFE
Sampling rate : 48.0 kHz
Frame rate : 93.750 FPS (512 spf)
Bit depth : 24 bits
Compression mode : Lossless / Lossy
Stream size : 2.55 GiB (11%)
Title : Original
Language : English
Default : No
Forced : No

Text #1
ID : 4
Format : UTF-8
Codec ID : S_TEXT/UTF8
Codec ID/Info : UTF-8 Plain Text
Duration : 1 h 25 min
Bit rate : 3 b/s
Count of elements : 63
Stream size : 2.37 KiB (0%)
Title : Forced
Language : Ukrainian
Default : Yes
Forced : Yes

Text #2
ID : 5
Format : UTF-8
Codec ID : S_TEXT/UTF8
Codec ID/Info : UTF-8 Plain Text
Duration : 1 h 29 min
Bit rate : 68 b/s
Count of elements : 1564
Stream size : 44.5 KiB (0%)
Title : Full
Language : English
Default : No
Forced : No

Menu
00:00:00.000 : en:1
00:10:03.353 : en:2
00:20:02.368 : en:3
00:28:28.624 : en:4
00:39:42.380 : en:5
00:50:58.389 : en:6
00:58:31.717 : en:7
01:09:50.311 : en:8
01:22:05.671 : en:9
01:30:31.176 : en:10
Скріншоти



Джерело: &
Особиста оцінка: 0 - не дивився


Золотий реліз (завантажене не впливає на рейтинг)
 Трекер:    Зареєстрований   

Завантажити / скачати фільм українською



відео для новачків



 Зареєстрований:   2018-03-03 14:21
 Розмір:   24.01 GB 
 Оцінка фільму:   8.9/10 (Голосів: 15)
   
Інші релізи
   Красиво піти / Going in Style (2017) Electroz  13 / 1   1.45 GB   2017-07-21 13:10 
   Красиво піти / Going in Style (2017) 1080p Ukr/Eng | Sub Eng Electroz  5 / 0   9.31 GB   2017-07-20 21:51 
   Красиво піти / Going in Style (2017) 720p Ukr/Eng | Sub Eng 11FrYkT  4 / 0   4.58 GB   2017-07-20 18:42 
   Красиво піти / Going in Style (2017) AVC Ukr/Eng | Sub Eng 11FrYkT  4 / 0   1.69 GB   2017-07-20 18:28 
bot 
робот


З нами з: 30.09.07
Востаннє: 26.05.05
Повідомлень: 20169

2018-03-03 14:21  
Тему перенесено з Анонси релізів до форуму Фільми в HD


staf777

kolejchuk 
Новенький


З нами з: 30.11.17
Востаннє: 18.11.18
Повідомлень: 1

2018-03-03 18:36  
Добрий Вечір, У всіх така проблема на роздачі комп висить нічого не можна робити ?
На інших торрентів без питань..

Ваш часовий пояс: GMT + 2 Години

Нова тема   Відповісти