Хороший лікар (Сезон 1, Серії 1-2) / The Good Doctor (Season 1, Episodes 1-2) (2017) 1080p Ukr/Eng | Sub Ukr

Нові коментарі

Нова тема   Відповісти
Автор Повідомлення
RobotaGolosom 
Попереджень: 1
Попереджень: 1 


З нами з: 09.03.15
Востаннє: 01.06.20
Повідомлень: 383

2018-03-01 23:44  
Хороший лікар (Сезон 1, Серії 1-2) / The Good Doctor (Season 1, Episodes 1-2) (2017) 1080p Ukr/Eng | Sub Ukr

Хороший лікар (Сезон 1, Серії 1-2) / The Good Doctor (Season 1, Episodes 1-2) (2017) 1080p Ukr/Eng | Sub Ukr

16+
Жанр: драма
Країна: США



Кінокомпанія: Shore Z Productions / 3AD / EnterMedia / Sony Pictures Television / ABC Studios
Режисер: Сет Ґордон, Майк Лісто
Актори: Фредді Хаймор, Ніколас Гонсалес, Антонія Томас, Чуку Моду, Бо Гарретт, Гілл Гарпер, Річард Шифф, Ґрем Верчір, Ірен Кен, Ребекка Хусейн та інші.

Сюжет:
Шон Мерфі - молодий лікар з діагнозом аутизм і синдром Cаванта, при цьому наділений унікальними здібностями. Мріючи про медичну кар'єру, провінційний герой вирішується на переїзд у велике місто, щоб влаштуватися в хірургічне відділення престижної лікарні. Незважаючи на складності в комунікації, внутрішні страхи, скептицизм та забобони колег, Шон потрапляє в команду і готовий працювати не покладаючи рук, щоб довести всім, що його незвичайний дар допоможе врятувати чимало життів...

Тривалість: 1 серія: 00:45:00 (2 з ХХ)
Перелік серій
Серія 1: Спалена їжа
Серія 2: Гора Рашмор
Якість:
Відео:
кодек:
розмір кадру: 1920 х 1080
бітрейт: ~ 9 480 Кбіт/сек

Аудіо # 1:
мова: українська
переклад: багатоголосий закадровий
кодек: 5.1
бітрейт: 640 Кбіт/сек

Аудіо # 2:
мова: англійська
переклад: оригінал
кодек: 5.1
бітрейт: 640 Кбіт/сек

Субтитри # 1:
мова: українська (написи)
тип: програмні (м'які)
формат: *.

Субтитри # 2:
мова: українська (повні)
тип: програмні (м'які)
формат: *.
Info

General
Unique ID : 299478791405754503933053100700523603681 (0xE14D8467B9B4691B15934ABEBDDCA6E1)
Complete name : I:\[Робота Голосом] Хороший лікар (The.Good.Doctor) [Сезон 1] [01 з ХХ] [ 1080p 5.1] [UKR, ENG+SUB].
Format :
Format version : Version 4 / Version 2
File size : 3.27 GiB
Duration : 43 min 24 s
Overall bit rate mode : Variable
Overall bit rate : 10.8 Mb/s
Encoded date : UTC 2018-02-19 22:02:13
Writing application : v19.0.0 ('Brave Captain') 64-bit
Writing library : libebml v1.3.5 + v1.4.8

Video
ID : 1
Format : AVC
Format/Info : Advanced Video Codec
Format profile : [email protected]
Format settings : CABAC / 4 Ref Frames
Format settings, CABAC : Yes
Format settings, ReFrames : 4 frames
Codec ID : V_MPEG4/ISO/AVC
Duration : 43 min 24 s
Bit rate mode : Variable
Bit rate : 9 487 kb/s
Maximum bit rate : 15.0 Mb/s
Width : 1 920 pixels
Height : 1 080 pixels
Display aspect ratio : 16:9
Frame rate mode : Constant
Frame rate : 23.976 (24000/1001) FPS
Color space : YUV
Chroma subsampling : 4:2:0
Bit depth : 8 bits
Scan type : Progressive
Bits/(Pixel*Frame) : 0.191
Stream size : 2.88 GiB (88%)
Language : Japanese
Default : Yes
Forced : No
Color range : Limited
Color primaries : BT.709
Transfer characteristics : BT.709
Matrix coefficients : BT.709

Audio #1
ID : 2
Format : AC-3
Format/Info : Audio Coding 3
Codec ID : A_AC3
Duration : 43 min 24 s
Bit rate mode : Constant
Bit rate : 640 kb/s
Channel(s) : 6 channels
Channel positions : Front: L C R, Side: L R, LFE
Sampling rate : 48.0 kHz
Frame rate : 31.250 FPS (1536 SPF)
Bit depth : 16 bits
Compression mode : Lossy
Stream size : 199 MiB (6%)
Title : Українська
Language : Ukrainian
Service kind : Complete Main
Default : Yes
Forced : No

Audio #2
ID : 3
Format : E-AC-3
Format/Info : Enhanced Audio Coding 3
Codec ID : A_EAC3
Duration : 43 min 24 s
Bit rate mode : Constant
Bit rate : 640 kb/s
Channel(s) : 6 channels
Channel positions : Front: L C R, Side: L R, LFE
Sampling rate : 48.0 kHz
Frame rate : 187.500 FPS (256 SPF)
Compression mode : Lossy
Stream size : 199 MiB (6%)
Title : Англійська
Language : English
Service kind : Complete Main
Default : No
Forced : No

Text #1
ID : 4
Format :
Codec ID : S_TEXT/
Codec ID/Info : Advanced Sub Station Alpha
Duration : 11 min 14 s
Bit rate : 18 b/s
Count of elements : 10
Compression mode : Lossless
Stream size : 1.51 KiB (0%)
Title : Українські (написи)
Language : Ukrainian
Default : Yes
Forced : No

Text #2
ID : 5
Format :
Codec ID : S_TEXT/
Codec ID/Info : Advanced Sub Station Alpha
Duration : 40 min 48 s
Bit rate : 156 b/s
Count of elements : 634
Compression mode : Lossless
Stream size : 46.8 KiB (0%)
Title : Українські (повні)
Language : Ukrainian
Default : No
Forced : No

Джерело:
Переклад: Аспід
Ролі озвучували: Ейдж, Котявр, Дядько Грей, Милуся, Maya Myauritsia
Робота зі звуком: Ейдж
Постер: SigridMarialer

На озвучення серіалу проводиться збір коштів!

Всього потрібно зібрати - 400 грн/серія грн. Зібрано 2750 (6 серій).
Підтримати озвучення
Реквізити:
[публікація реквізитів без дозволу адміністрації заборонена]


Авторський реліз (завантажувати можна без реєстрації)
 Трекер:    Зареєстрований   

Завантажити / скачати серіал українською



відео для новачків



 Зареєстрований:   2018-05-11 22:02
 Розмір:   6.85 GB 
 Оцінка серіалу:   10/10 (Голосів: 15)
   
RobotaGolosom 
Попереджень: 1
Попереджень: 1 


З нами з: 09.03.15
Востаннє: 01.06.20
Повідомлень: 383

2018-03-02 00:05  
Дякуємо Selb за замовлення перекладу й озвучення 3х серій
RobotaGolosom 
Попереджень: 1
Попереджень: 1 


З нами з: 09.03.15
Востаннє: 01.06.20
Повідомлень: 383

2018-03-04 00:49  
Дякуємо за підтримку. Зібрано 1350грн
RobotaGolosom 
Попереджень: 1
Попереджень: 1 


З нами з: 09.03.15
Востаннє: 01.06.20
Повідомлень: 383

2018-03-05 22:07  
Дякуємо. Зібрано 1750грн (4 серії)
RobotaGolosom 
Попереджень: 1
Попереджень: 1 


З нами з: 09.03.15
Востаннє: 01.06.20
Повідомлень: 383

2018-03-12 22:11  
Дякуємо. Зібрано 2600 (6 серій)
Друга серія буде на днях

RobotaGolosom 
Попереджень: 1
Попереджень: 1 


З нами з: 09.03.15
Востаннє: 01.06.20
Повідомлень: 383

2018-05-11 22:03  
Додано другу серію!
ukrainer8 
Відео Гуртом - підтримка та поширення
Відео Гуртом - підтримка та поширення


З нами з: 31.10.09
Востаннє: 30.11.20
Повідомлень: 34

2019-01-20 17:56  
Скажіть будь ласка, чи планується продовження перекладу цього серіалу? Досить цікавий початок, очікую, що і далі буде не менш цікаво, але вже майже рік немає ніяких новин про продовження цієї роботи
selb 
Відео Гуртом - підтримка та поширення
Відео Гуртом - підтримка та поширення


З нами з: 13.01.16
Востаннє: 03.12.20
Повідомлень: 565

2019-01-20 21:07  
ukrainer8, студія «Робота голосом» — шахраї. Продовження не буде.
ukrainer8 
Відео Гуртом - підтримка та поширення
Відео Гуртом - підтримка та поширення


З нами з: 31.10.09
Востаннє: 30.11.20
Повідомлень: 34

2019-01-20 22:02  
То може яка інша студія завершить розпочату ними роботу? Не повинен переклад гарного серіалу страждати від цього.
interesnemo 
Новенький


З нами з: 23.02.14
Востаннє: 03.12.20
Повідомлень: 6

2019-03-22 19:43  
чому досі немає перекладу українською?
Ваш часовий пояс: GMT + 2 Години

Нова тема   Відповісти