Ліга справедливості / Justice League (2017) Remux 1080p Ukr/Eng | Sub Eng

Нові коментарі

Нова тема   Відповісти
Автор Повідомлення
staf777 
Попереджень: 1
Попереджень: 1 


З нами з: 16.11.16
Востаннє: 19.12.18
Повідомлень: 1939

2018-03-01 23:20  
Ліга справедливості / Justice League (2017) Remux 1080p Ukr/Eng | Sub Eng

Ліга справедливості / Justice League (2017) Remux 1080p Ukr/Eng | Sub Eng


Жанр: бойовик, пригоди, фантастика
Країна: США



Кінокомпанія: Warner Bros. Pictures, DC Entertainment
Режисер: Зак Снайдер
Актори: Бен Аффлек, Генрі Кавілл, Ґаль Ґадот, Джейсон Момоа, Езра Міллер, Рей Фішер, Емі Адамс, Джеремі Айронс, Кьяран Гайндс, Даян Лейн та інші

Сюжет:
Жертовність Супермена повернула Брюсу Вейну віру в супергероїв. Коли над світом нависла нова загроза, він, разом зі своєю новою спільницею Диво-Жінкою, вирішує зібрати разом супергероїв. Аквамен, Флеш і Кіборг готові допомогти їм. Але можливо герої зібралися занадто пізно, щоб щось змінити.


Тривалість: 02:00:00
Якість: Remux 1080p
Відео:
кодек:
розмір кадру: 1920x1080
бітрейт: 21.8 Mб/с

Аудіо # 1:
мова: українська
переклад: професійний дубльований
кодек: 2.0
бітрейт: 224 кб/с

Аудіо # 2:
мова: англійська
переклад: оригінал
кодек: TrueHD 7.1
бітрейт: 3879 кб/с

Аудіо # 3:
мова: англійська
переклад: коментарі
кодек: 5.1
бітрейт: 448 кб/с

Субтитри: (Forced)
мова: українська
тип: програмні (м'які)
формат: *.srt

Субтитри:
мова: англійська
тип: програмні (м'які)
формат: *.srt
Info
General
Unique ID : 252680263897888190121998466760380994807 (0xBE1872DB5C0BD66299D397A6F58F54F7)
Complete name : H:\Майбутні релізи\Justice League (2017) Remux 1080p [IMAX Edition] [Ukr][Eng][Sub Eng][Hurtom].
Format :
Format version : Version 4 / Version 2
File size : 22.2 GiB
Duration : 2 h 0 min
Overall bit rate mode : Variable
Overall bit rate : 26.4 Mb/s
Movie name : Justice League (2017) Remux 1080p [IMAX Edition] [Ukr][Eng][Sub Eng][Hurtom]
Encoded date : UTC 2018-03-01 22:11:15
Writing application : v9.8.0 ('Kuglblids') 64bit
Writing library : libebml v1.3.4 + v1.4.5

Video
ID : 1
Format : AVC
Format/Info : Advanced Video Codec
Format profile : [email protected]
Format settings, CABAC : Yes
Format settings, ReFrames : 4 frames
Codec ID : V_MPEG4/ISO/AVC
Duration : 2 h 0 min
Bit rate mode : Variable
Bit rate : 21.8 Mb/s
Maximum bit rate : 28.0 Mb/s
Width : 1 920 pixels
Height : 1 080 pixels
Display aspect ratio : 16:9
Frame rate mode : Constant
Frame rate : 23.976 (24000/1001) FPS
Color space : YUV
Chroma subsampling : 4:2:0
Bit depth : 8 bits
Scan type : Progressive
Bits/(Pixel*Frame) : 0.439
Stream size : 18.3 GiB (83%)
Language : English
Default : Yes
Forced : No

Audio #1
ID : 2
Format : AC-3
Format/Info : Audio Coding 3
Mode extension : CM (complete main)
Format settings, Endianness : Big
Codec ID : A_AC3
Duration : 2 h 0 min
Bit rate mode : Constant
Bit rate : 224 kb/s
Channel(s) : 2 channels
Channel positions : Front: L R
Sampling rate : 48.0 kHz
Frame rate : 31.250 FPS (1536 spf)
Bit depth : 16 bits
Compression mode : Lossy
Stream size : 192 MiB (1%)
Title : iTunes
Language : Ukrainian
Default : Yes
Forced : Yes

Audio #2
ID : 3
Format : Atmos / TrueHD
Codec ID : A_TRUEHD
Duration : 2 h 0 min
Bit rate mode : Variable
Bit rate : 3 879 kb/s
Maximum bit rate : 6 366 kb/s
Channel(s) : Object Based / 8 channels
Channel positions : Object Based / Front: L C R, Side: L R, Back: L R, LFE
Sampling rate : / 48.0 kHz
Frame rate : 1 200.000 FPS (40 spf)
Compression mode : Lossless
Stream size : 3.25 GiB (15%)
Title : Original
Language : English
Default : No
Forced : No

Audio #3
ID : 4
Format : AC-3
Format/Info : Audio Coding 3
Mode extension : CM (complete main)
Format settings, Endianness : Big
Codec ID : A_AC3
Duration : 2 h 0 min
Bit rate mode : Constant
Bit rate : 448 kb/s
Channel(s) : 6 channels
Channel positions : Front: L C R, Side: L R, LFE
Sampling rate : 48.0 kHz
Frame rate : 31.250 FPS (1536 spf)
Bit depth : 16 bits
Compression mode : Lossy
Stream size : 385 MiB (2%)
Language : English
Default : No
Forced : No

Text #1
ID : 5
Format : UTF-8
Codec ID : S_TEXT/UTF8
Codec ID/Info : UTF-8 Plain Text
Duration : 1 h 38 min
Bit rate : 1 b/s
Count of elements : 31
Stream size : 1.21 KiB (0%)
Title : forced
Language : Ukrainian
Default : Yes
Forced : Yes

Text #2
ID : 6
Format : UTF-8
Codec ID : S_TEXT/UTF8
Codec ID/Info : UTF-8 Plain Text
Duration : 1 h 49 min
Bit rate : 43 b/s
Count of elements : 1279
Stream size : 35.3 KiB (0%)
Title : full
Language : English
Default : No
Forced : No

Menu
00:00:00.000 : en:Chapter 1
00:10:56.155 : en:Chapter 2
00:19:16.488 : en:Chapter 3
00:30:41.673 : en:Chapter 4
00:40:19.667 : en:Chapter 5
00:49:56.535 : en:Chapter 6
01:01:26.891 : en:Chapter 7
01:09:41.552 : en:Chapter 8
01:19:18.587 : en:Chapter 9
01:30:34.512 : en:Chapter 10
01:40:33.569 : en:Chapter 11
01:48:43.058 : en:Chapter 12
Скріншоти



Джерело: &
Особиста оцінка: 0 - не дивився


Золотий реліз (завантажене не впливає на рейтинг)
 Трекер:    Зареєстрований   

Завантажити / скачати фільм українською



відео для новачків



 Зареєстрований:   2018-03-02 01:43
 Розмір:   22.17 GB 
 Оцінка фільму:   8.3/10 (Голосів: 19)
   
zoomymba2012 
VIP


З нами з: 08.01.15
Востаннє: 18.12.18
Повідомлень: 531

2018-03-02 09:24  
Цитата:
[IMAX Edition]

Знову те саме, як і в усіх інших...
Це ж не Imax Edition. Релізери, не вказуйте це в релізах Ліги.

Кривбасс 
Новенький


З нами з: 18.09.16
Востаннє: 18.12.18
Повідомлень: 1

2018-03-28 19:11  
Коли можна чекати в 3D?
Uberwinder 
VIP


З нами з: 18.11.16
Востаннє: 19.12.18
Повідомлень: 268

2018-04-12 21:32  
Фільм виглядає мов набір спецефектів для збільшення касових зборів, більше там нічого не розгледів.
Kiara 
Свій


З нами з: 18.08.10
Востаннє: 08.12.18
Повідомлень: 125

2018-09-19 17:30  
Ото я ... і чого це я раніше не дивилася цього фільму?.. я подумала шо то якесь гім*о.. бо там Баррі Ален не той що в серіалі).. але ж там Джейсон Момоа і та Супер-жінка і ще Супермен.. і взагалі в фільмі повно екшену.. в деяких сценах, особливо на острові амазонок, було враження що дивлюсь фільм не від DC а від марвел.. нагадало так.. і класно зробили (ну .. правда трохи більше було замітно комп'ютерного екшену) ..

P.S і чого мені весь фільм здавалося що обличчя нище носа в Супермена комп'ютерно зроблено? о.О чесно.. так дивно... я витріщалася на його рот як дурна)) мені чесно здавалося що у всіх все реально а в нього занадто гарно.. як комп'ютерно.. що за.... Wide grin

-Star-Lord- 
VIP


З нами з: 09.08.18
Востаннє: 19.12.18
Повідомлень: 355

2018-09-19 22:20  
Kiara написано:
P.S і чого мені весь фільм здавалося що обличчя нище носа в Супермена комп'ютерно зроблено? о.О чесно.. так дивно... я витріщалася на його рот як дурна)) мені чесно здавалося що у всіх все реально а в нього занадто гарно.. як комп'ютерно.. що за....

Бо в нього були вуса для зйомок в іншому фільмі. Через це їх прийшлося замальовувати, замість того, щоб збрити.

Ваш часовий пояс: GMT + 2 Години

Нова тема   Відповісти