Ілюзія (2017) 720p

Нові коментарі

Нова тема   Відповісти
Автор Повідомлення
AngryBirdsUA 
Свій


З нами з: 24.02.10
Востаннє: 28.02.21
Повідомлень: 3151

2018-03-01 22:26  
Ілюзія (2017) 720p

Ілюзія (2017) 720p


Жанр: фантастика, притча ігровий фільм
Країна: Україна

Кінокомпанія: Національна кіностудія художніх фільмів імені Олександра Довженка
Режисер: Аліна Хорошилова
Актори: Станіслав Скакун, Аліна Костюкова, Мария Хорошилова

Сюжет:
Майбутнє. Світ після катастрофи, люди, що вижили, займаються в основному тим, що копають рештки колишньої цивілізації.


Тривалість: 00:26:07
Якість: 720p
Відео:
кодек:
розмір кадру: 1280 х 692
бітрейт: 2177 кб/с

Аудіо:
мова: українська
переклад: оригінал
кодек: 2.0
бітрейт: 192 кб/с
Info:
General
Unique ID : 192042021439691817023238439271412478903 (0x9079F2ADF965F36D98E9E7973AA733B7)
Complete name : F:\Ілюзія (2017) 720p [Hurtom].
Format :
Format version : Version 4 / Version 2
File size : 441 MiB
Duration : 26 min 1 s
Overall bit rate : 2 368 kb/s
Encoded date : UTC 2018-03-02 13:34:05
Writing application : v7.8.0 ('River Man') 32bit built on Apr 3 2015 12:11:22
Writing library : libebml v1.3.1 + v1.4.2

Video
ID : 1
Format : AVC
Format/Info : Advanced Video Codec
Format profile : [email protected]
Format settings : CABAC / 8 Ref Frames
Format settings, CABAC : Yes
Format settings, ReFrames : 8 frames
Codec ID : V_MPEG4/ISO/AVC
Duration : 26 min 1 s
Bit rate : 2 177 kb/s
Width : 1 280 pixels
Height : 692 pixels
Display aspect ratio : 1.85:1
Frame rate mode : Constant
Frame rate : 25.000 FPS
Color space : YUV
Chroma subsampling : 4:2:0
Bit depth : 8 bits
Scan type : Progressive
Bits/(Pixel*Frame) : 0.098
Stream size : 405 MiB (92%)
Writing library : core 152 r2851 ba24899
Encoding settings : cabac=1 / ref=8 / deblock=1:-1:-1 / analyse=0x3:0x133 / me=umh / subme=10 / psy=1 / psy_rd=1.00:0.15 / mixed_ref=1 / me_range=32 / chroma_me=1 / trellis=2 / 8x8dct=1 / cqm=0 / deadzone=21,11 / fast_pskip=0 / chroma_qp_offset=-3 / threads=12 / lookahead_threads=1 / sliced_threads=0 / nr=0 / decimate=1 / interlaced=0 / bluray_compat=0 / constrained_intra=0 / bframes=3 / b_pyramid=2 / b_adapt=2 / b_bias=0 / direct=3 / weightb=1 / open_gop=0 / weightp=2 / keyint=250 / keyint_min=25 / scenecut=40 / intra_refresh=0 / rc_lookahead=60 / rc=crf / mbtree=1 / crf=19.0 / qcomp=0.60 / qpmin=0 / qpmax=69 / qpstep=4 / vbv_maxrate=31250 / vbv_bufsize=31250 / crf_max=0.0 / nal_hrd=none / filler=0 / ip_ratio=1.40 / aq=1:1.00
Default : Yes
Forced : No

Audio
ID : 2
Format :
Format/Info : Advanced Audio Codec
Format profile : LC
Codec ID : A_AAC-2
Duration : 26 min 1 s
Bit rate : 192 kb/s
Channel(s) : 2 channels
Channel positions : Front: L R
Sampling rate : 48.0 kHz
Frame rate : 46.875 FPS (1024 SPF)
Compression mode : Lossy
Stream size : 35.3 MiB (8%)
Language : Ukrainian
Default : Yes
Forced : No


Джерело:


Золотий реліз (завантажене не впливає на рейтинг)
 Трекер:    Зареєстрований   

Завантажити / скачати український фільм



відео для новачків



 Зареєстрований:   2018-03-02 15:40
 Розмір:   441 MB 
 Оцінка фільму:   8.5/10 (Голосів: 28)
   
murrrchik 
Свій


З нами з: 22.07.10
Востаннє: 01.03.21
Повідомлень: 73

2018-03-02 22:29  
Непоганий задум, непогано знято (ну, за виключенням того монстра), але подано досить примітивно. Сюжет якийсь уривчастий, не плавний. Діалоги акторів теж не дотягують до рівня. Ну і атмосфера постапокаліптичного світу передана не досить гарно, якось по-дитячому.
Але я сподіваюся, що спроби зняти достойне українське короткометражне кіно таки увінчаються успіхом :-)

taksist 
VIP


З нами з: 10.12.12
Востаннє: 14.10.20
Повідомлень: 551

2018-03-07 16:21  
головна чоловіча роль - пристойно. все инше - це про що? хто ці люди...що це за місце...де вони оте купляють що курять...
СивийВуйко 
Свій


З нами з: 22.01.18
Востаннє: 24.02.21
Повідомлень: 54

2018-03-09 17:01  
taksist написано:
де вони оте купляють що курять...

Може самі вирощують...
Але де?! ...в тих-то умовах.

hetzendorf 
Забанено
Забанено


З нами з: 23.07.15
Востаннє: 05.01.21
Повідомлень: 2966

2018-04-19 23:39  
Браво, браво! Сучасний український антирелігійний фільм посеред нинішнього розквіту релігійного дурману й угару мракобісся — я й навіть не сподівався. Приємно здивований ^_^
murrrchik написано:
Сюжет якийсь уривчастий, не плавний.

Часу знімального мало, а розмахнулися на більше. Так, трохи не розрахували. Але, з урахуванням вищесказаного, особисто я готовий це пробачити.
9/10

Косаборода 
Новенький


З нами з: 18.01.18
Востаннє: 22.09.18
Повідомлень: 6

2018-06-21 03:02  
Один раз переглянути...
ssTAss 
Модератор музики


З нами з: 05.07.08
Востаннє: 01.03.21
Повідомлень: 17409

2018-06-21 16:06  
Рівень студентської роботи і то першого курсу). Хоч і задум нормальний, але занадто багато не продуманого - одяг, взуття, вода, консерви (про "монстра" краще помовчу)... І до чого тут голова пуйла в банці?
Так, розумію, фільм малобюджетний, але невже ні в кого не було реальної купюри? Якусь кацапську насмішку над гривнею втулили, ганьба.

Ваш часовий пояс: GMT + 2 Години

Нова тема   Відповісти