Сержант Білко / Sgt. Bilko (1996) AVC [Open Matte]

Нові коментарі

Нова тема   Відповісти
Автор Повідомлення
igor911 
Відео Гуртом
Відео Гуртом


З нами з: 18.01.08
Востаннє: 20.04.19
Повідомлень: 12307

2018-03-01 20:43  
Сержант Білко / Sgt. Bilko (1996) AVC [Open Matte]

Сержант Білко / Sgt. Bilko (1996) AVC [Open Matte]
Оригінальний постер



Жанр: комедія
Країна: США



Кінокомпанія: Imagine Entertainment, Universal Pictures
Режисер: Джонатан Лінн
Актори: Стів Мартін, Ден Айкройд, Філ Гартмен, Ґленн Хедлі, Деріл Мітчел, Макс Каселла, Ерік Едвардс, Ден Ферро, Джон Маршалл Джонс

Сюжет:
Сержант Білко - блискучий шахрай, дотепник, що затято любить сперечатись. Він - найбільш неблагонадійний чоловік в околиці і при цьому його люблять усі. Ну, не всі, звичайно. Важко любити людину, руку якого виявляєш в своїй кишені.

У сержанта Білко є один заклятий ворог, один друг і одна кохана. Ернест Білко завідує гаражем на військовій базі. Він володіє особливим даром «ставити діагноз» поламаним автівкам, не відкриваючи кришки капота. Крім того, Ернест всюди знаходить гроші ... за запахом.


Тривалість: 01:34:17
Якість: AVC [Open Matte]
Відео:
кодек:
розмір кадру: 1024x576
бітрейт: 2744 кб/с

Аудіо:
мова: українська
переклад: багатоголосий закадровий
ролі озвучили: Стів Мартін - Анатолій Пашнін, Ден Айкройд - Анатолій Зіновенко і Олена Узлюк
кодек: 2.0
бітрейт: 192 кб/с
Info
Код:
Complete name               : Sgt. Bilko [Open Matte] (1996) AVC [Hurtom].
Format                      :
Format version              : Version 4 / Version 2
File size                   : 1.93 GiB
Duration                    : 1 h 34 min
Overall bit rate            : 2 934 kb/s
Movie name                  : Сержант Білко / Sgt. Bilko [Open Matte] (1996) AVC [Hurtom]
Encoded date                : UTC 2018-03-01 16:35:26
Writing application         : v21.0.0 ('Tardigrades Will Inherit The Earth') 64-bit
Writing library             : libebml v1.3.5 + v1.4.8
Cover                       : Yes
Attachments                 : cover.jpg

Video
ID                          : 1
Format                      : AVC
Format/Info                 : Advanced Video Codec
Format profile              : [email protected]
Format settings             : CABAC / 11 Ref Frames
Format settings, CABAC      : Yes
Format settings, ReFrames   : 11 frames
Codec ID                    : V_MPEG4/ISO/AVC
Duration                    : 1 h 34 min
Bit rate                    : 2 744 kb/s
Width                       : 1 024 pixels
Height                      : 576 pixels
Display aspect ratio        : 16:9
Frame rate mode             : Constant
Frame rate                  : 23.976 (24000/1001) FPS
Color space                 : YUV
Chroma subsampling          : 4:2:0
Bit depth                   : 8 bits
Scan type                   : Progressive
Bits/(Pixel*Frame)          : 0.194
Stream size                 : 1.80 GiB (93%)
Title                       : Сержант Білко / Sgt. Bilko (1996) AVC [Open Matte] [-=DoMiNo=-]
Writing library             : core 155 r2901M 7d0ff22
Encoding settings           : cabac=1 / ref=11 / deblock=1:-3:-3 / analyse=0x3:0x133 / me=umh / subme=11 / psy=1 / psy_rd=1.00:0.10 / mixed_ref=1 / me_range=32 / chroma_me=1 / trellis=2 / 8x8dct=1 / cqm=0 / deadzone=21,11 / fast_pskip=1 / chroma_qp_offset=-3 / threads=6 / lookahead_threads=1 / sliced_threads=0 / nr=0 / decimate=1 / interlaced=0 / bluray_compat=0 / constrained_intra=0 / bframes=12 / b_pyramid=2 / b_adapt=2 / b_bias=0 / direct=3 / weightb=1 / open_gop=0 / weightp=2 / keyint=240 / keyint_min=24 / scenecut=40 / intra_refresh=0 / rc_lookahead=60 / rc=crf / mbtree=1 / crf=19.0 / qcomp=0.60 / qpmin=0 / qpmax=69 / qpstep=4 / ip_ratio=1.40 / aq=1:1.00
Language                    : English
Default                     : Yes
Forced                      : No
Color range                 : Limited
Color primaries             : BT.709
Transfer characteristics    : BT.709
Matrix coefficients         : BT.709

Audio
ID                          : 2
Format                      : AC-3
Format/Info                 : Audio Coding 3
Codec ID                    : A_AC3
Duration                    : 1 h 34 min
Bit rate mode               : Constant
Bit rate                    : 192 kb/s
Channel(s)                  : 2 channels
Channel positions           : Front: L R
Sampling rate               : 48.0 kHz
Frame rate                  : 31.250 FPS (1536 SPF)
Bit depth                   : 16 bits
Compression mode            : Lossy
Stream size                 : 129 MiB (7%)
Title                       : MVO [Ukraina] 2.0 192 Kbps
Language                    : Ukrainian
Service kind                : Complete Main
Default                     : Yes
Forced                      : No


Джерело: & &
Подяка karvai0, rooster за українську доріжку та Ham_R за постер.


Срібний реліз (на рейтинг впливає 50% завантаженого)
 Трекер:    Зареєстрований   

Завантажити / скачати фільм українською



відео для новачків



 Зареєстрований:   2018-03-01 20:43
 Розмір:   1.93 GB 
 Оцінка фільму:   9.8/10 (Голосів: 16)
   
Інші релізи
   Сержант Білко / Sgt. Bilko (1996) Ukr/Eng drop_plz  2 / 0   1.59 GB   2018-10-12 11:35 
   Сержант Білко / Sgt. Bilko (1996) 1080p [Open Matte] Ukr/Eng | Sub Eng staf777  3 / 0   10.04 GB   2018-02-25 12:10 
   Сержант Білко / Sgt. Bilko (1996) Ukr/Eng rooster  5 / 1   1.69 GB   2012-04-27 21:35 
hatak 
Свій


З нами з: 30.04.15
Востаннє: 20.04.19
Повідомлень: 83

2018-10-23 15:51  
Що тут прокоментувати? Це — жива кінокласика американського гумору 90-х років, багато для кого фільм з дитинства, коли такого роду жарти сприймались з особливою гостротою. Навіть переглядаючи його зараз багато що залишається актуальним і щиро смішним, дотепним та цікавим, створює відповідний настрій. Кому жанр підходить — дивитись варто.
butser 
Новенький


З нами з: 10.04.18
Востаннє: 18.04.19
Повідомлень: 7

2018-10-23 19:00  
Слабкий рейтинг, як для такого класнючого фільму, дивіться і не звертайте на нього уваги)
Rhett_Butler 
Новенький


З нами з: 07.11.11
Востаннє: 18.04.19
Повідомлень: 16

2018-10-23 23:33  
Чудова комедія . 10/10 .
Ваш часовий пояс: GMT + 2 Години

Нова тема   Відповісти