Ла Ла Ленд / La La Land (2016) Remux 1080p 2xUkr/Eng | Sub Ukr/Eng

Нові коментарі

Нова тема   Відповісти
Автор Повідомлення
staf777 
Відео Гуртом - підтримка та поширення
Відео Гуртом - підтримка та поширення


З нами з: 16.11.16
Востаннє: 26.05.19
Повідомлень: 2384

2018-03-01 12:54  
Ла Ла Ленд / La La Land (2016) Remux 1080p 2xUkr/Eng | Sub Ukr/Eng


Жанр: комедія, драма, мюзикл
Країна: США



Кінокомпанія: Black Label Media, Gilbert Films, Impostor Pictures
Режисер: Дем'єн Шазелл
Актори: Раян Ґослінґ, Емма Стоун, Джон Ледженд, Дж.К. Сіммонс, Розмарі ДеВітт, Фінн Віттрок, Каллі Ернандес, С. Мідзуно, Джессіка Рот та інші

Сюжет:
Це історія кохання молодої акторки, яка між прослуховуваннями подає каву відомим кінозіркам, і фанатичного джазового музиканта, котрий змушений підробляти в заштатних барах. Але успіх, який прийшов до закоханих, починає підточувати їхні стосунки...


Тривалість: 02:07:48
Якість: Remux 1080p | CAN Transfer |
Відео:
кодек:
розмір кадру: 1920x1080
бітрейт: 27,8 Mб/с

Аудіо # 1:
мова: українська
переклад: багатоголосий закадровий
кодек: 5.1
бітрейт: 1509 кб/с

Аудіо # 2:
мова: українська
переклад: професійний дубльований
кодек: 2.0
бітрейт: 192 кб/с
Інформація про дубляж
Переклад: Лідії Громовенко і Ольги Галайди
Режисер дубляжу: Лідія Громовенко
Звукорежисер: Віталій Ящук
Звукорежисер перезапису: Максим Пономарчук
Ролі дублювали: Себастіан – Іван Розін, Мія – Катерина Брайковська, Білл – Владислав Пупков, Кіт – Дмитро Гаврилов, Володимир Кокотунов, Катерина Коновалова, Катерина Сергеєва та інші.
Фільм дубльовано студією Pie Post Production на замовлення Ukrainian Film Distribution.
Аудіо # 3:
мова: англійська
переклад: оригінал
кодек: TrueHD 7.1
бітрейт: 3653 кб/с

Субтитри # 1-2: (Full, Forced)
мова: українська
тип: програмні (м'які)
формат: *.srt

Субтитри # 3: (Full)
мова: англійська
тип: програмні (м'які)
формат: *.srt
Скріншоти




Info &
Код:
General
Unique ID                                : 182346528842107834232480930327304055319 (0x892EA9FCE695162896D290B1FB8BAA17)
Complete name                            : H:\Майбутні релізи\La La Land (2016) Remux 1080p [2xUkr][Eng][Sub Ukr Eng][Hurtom].
Format                                   :
Format version                           : Version 4 / Version 2
File size                                : 29.7 GiB
Duration                                 : 2 h 7 min
Overall bit rate mode                    : Variable
Overall bit rate                         : 33.2 Mb/s
Movie name                               : La La Land (2016) Remux 1080p [2xUkr][Eng][Sub Ukr Eng][Hurtom]
Encoded date                             : UTC 2018-03-01 08:22:02
Writing application                      : v9.8.0 ('Kuglblids') 64bit
Writing library                          : libebml v1.3.4 + v1.4.5
Cover                                    : Yes
Attachments                              : cover.jpg / cover.jpg

Video
ID                                       : 1
Format                                   : AVC
Format/Info                              : Advanced Video Codec
Format profile                           : [email protected]
Format settings, CABAC                   : Yes
Format settings, ReFrames                : 4 frames
Codec ID                                 : V_MPEG4/ISO/AVC
Duration                                 : 2 h 7 min
Bit rate mode                            : Variable
Bit rate                                 : 27.8 Mb/s
Maximum bit rate                         : 37.0 Mb/s
Width                                    : 1 920 pixels
Height                                   : 1 080 pixels
Display aspect ratio                     : 16:9
Frame rate mode                          : Constant
Frame rate                               : 23.976 (24000/1001) FPS
Color space                              : YUV
Chroma subsampling                       : 4:2:0
Bit depth                                : 8 bits
Scan type                                : Progressive
Bits/(Pixel*Frame)                       : 0.559
Stream size                              : 24.8 GiB (84%)
Language                                 : English
Default                                  : Yes
Forced                                   : No

Audio #1
ID                                       : 2
Format                                   :
Format/Info                              : Digital Theater Systems
Mode                                     : 16
Format settings, Endianness              : Big
Codec ID                                 : A_DTS
Duration                                 : 2 h 7 min
Bit rate mode                            : Constant
Bit rate                                 : 1 509 kb/s
Channel(s)                               : 6 channels
Channel positions                        : Front: L C R, Side: L R, LFE
Sampling rate                            : 48.0 kHz
Frame rate                               : 93.750 FPS (512 spf)
Bit depth                                : 24 bits
Compression mode                         : Lossy
Stream size                              : 1.35 GiB (5%)
Title                                    : 5.1 @ 1536 kbps - Цікава Ідея
Language                                 : Ukrainian
Default                                  : Yes
Forced                                   : Yes

Audio #2
ID                                       : 3
Format                                   : AC-3
Format/Info                              : Audio Coding 3
Mode extension                           : CM (complete main)
Format settings, Endianness              : Big
Codec ID                                 : A_AC3
Duration                                 : 2 h 7 min
Bit rate mode                            : Constant
Bit rate                                 : 192 kb/s
Channel(s)                               : 2 channels
Channel positions                        : Front: L R
Sampling rate                            : 48.0 kHz
Frame rate                               : 31.250 FPS (1536 spf)
Bit depth                                : 16 bits
Compression mode                         : Lossy
Stream size                              : 176 MiB (1%)
Title                                    : 2.0 @ 192 kbps - DUB
Language                                 : Ukrainian
Default                                  : No
Forced                                   : No

Audio #3
ID                                       : 4
Format                                   : Atmos / TrueHD
Codec ID                                 : A_TRUEHD
Duration                                 : 2 h 7 min
Bit rate mode                            : Variable
Bit rate                                 : 3 653 kb/s
Maximum bit rate                         : 6 645 kb/s
Channel(s)                               : Object Based / 8 channels
Channel positions                        : Object Based / Front: L C R, Side: L R, Back: L R, LFE
Sampling rate                            :  / 48.0 kHz
Frame rate                               : 1 200.000 FPS (40 spf)
Compression mode                         : Lossless
Stream size                              : 3.26 GiB (11%)
Title                                    : Original
Language                                 : English
Default                                  : No
Forced                                   : No

Text #1
ID                                       : 5
Format                                   : UTF-8
Codec ID                                 : S_TEXT/UTF8
Codec ID/Info                            : UTF-8 Plain Text
Duration                                 : 1 h 53 min
Bit rate                                 : 13 b/s
Count of elements                        : 221
Stream size                              : 11.1 KiB (0%)
Title                                    : forced
Language                                 : Ukrainian
Default                                  : Yes
Forced                                   : Yes

Text #2
ID                                       : 6
Format                                   : UTF-8
Codec ID                                 : S_TEXT/UTF8
Codec ID/Info                            : UTF-8 Plain Text
Duration                                 : 1 h 59 min
Bit rate                                 : 65 b/s
Count of elements                        : 1028
Stream size                              : 57.1 KiB (0%)
Title                                    : full
Language                                 : Ukrainian
Default                                  : No
Forced                                   : No

Text #3
ID                                       : 7
Format                                   : UTF-8
Codec ID                                 : S_TEXT/UTF8
Codec ID/Info                            : UTF-8 Plain Text
Duration                                 : 1 h 59 min
Bit rate                                 : 36 b/s
Count of elements                        : 1091
Stream size                              : 31.6 KiB (0%)
Title                                    : Full
Language                                 : English
Default                                  : No
Forced                                   : No

Menu
00:00:00.000                             : en:00:00:00.000
00:07:06.926                             : en:00:07:06.926
00:17:30.883                             : en:00:17:30.883
00:26:05.856                             : en:00:26:05.856
00:31:14.039                             : en:00:31:14.039
00:39:29.075                             : en:00:39:29.075
00:46:17.566                             : en:00:46:17.566
00:52:11.170                             : en:00:52:11.170
00:58:50.360                             : en:00:58:50.360
01:05:58.580                             : en:01:05:58.580
01:13:01.293                             : en:01:13:01.293
01:24:16.301                             : en:01:24:16.301
01:31:50.880                             : en:01:31:50.880
01:41:10.981                             : en:01:41:10.981
01:46:07.611                             : en:01:46:07.611
01:56:19.598                             : en:01:56:19.598

Подяка пану Electroz за Аудіо №2 і пану Hanway за синхронізацію Аудіо №1.
Джерело: &


Золотий реліз (завантажене не впливає на рейтинг)
 Трекер:    Зареєстрований   

Завантажити / скачати фільм українською



відео для новачків



 Зареєстрований:   2018-03-01 13:11
 Розмір:   29.65 GB 
 Оцінка фільму:   9/10 (Голосів: 11)
   
Інші релізи
   Ла Ла Ленд / La La Land (2016) 1080p H.265 2xUkr/Eng | Sub Ukr/Eng -Star-Lord-  0 / 0   9.12 GB   2019-01-10 19:31 
   Ла Ла Ленд / La La Land (2016) 1080p H.265 2xUkr/Eng | Sub Ukr/Eng ukr_anonymous  2 / 0   6.59 GB   2018-07-31 16:43 
   Ла Ла Ленд / La La Land (2016) AVC 2xUkr BASTERD-94  6 / 0   2.25 GB   2017-04-25 21:34 
   Ла Ла Ленд / La La Land (2016) 2xUkr Gelios  14 / 0   2.18 GB   2017-04-23 12:52 
   Ла Ла Ленд / La La Land (2016) AVC 2xUkr/Eng | Sub Ukr/Eng Electroz  2 / 0   2.35 GB   2017-04-22 23:20 
   Ла-Ла Ленд (Ла Ла Ленд) / La La Land (2016) 720p 2xUkr/Eng | Sub Ukr/Eng Patriot_ukr  14 / 0   7.65 GB   2017-04-22 19:53 
   Ла Ла Ленд / La La Land (2016) 1080p 2xUkr/Eng | Sub Ukr/Eng Electroz  4 / 0   16.09 GB   2017-04-22 13:20 
bot 
робот


З нами з: 30.09.07
Востаннє: 26.05.05
Повідомлень: 21393

2018-03-01 13:11  
Тему перенесено з Анонси релізів до форуму Фільми в HD


staf777

staf777 
Відео Гуртом - підтримка та поширення
Відео Гуртом - підтримка та поширення


З нами з: 16.11.16
Востаннє: 26.05.19
Повідомлень: 2384

2018-03-01 13:16  
Забув скіншоти - зараз добавлю
Electroz 
Відео Гуртом - підтримка та поширення
Відео Гуртом - підтримка та поширення


З нами з: 18.09.14
Востаннє: 27.05.19
Повідомлень: 3389

2018-03-01 13:27  
7.1 доріжку від Цікавої Ідеї можна знайти на кінозалі в 2160p релізі.
agamem 
Частий відвідувач


З нами з: 24.05.12
Востаннє: 27.05.19
Повідомлень: 25

2018-03-01 18:49  
Тю! А мені вже було примарилося, що це про знамениту пісеньку, яку присвятили футбольні фани, деякій істоті з лисиною.
igor911 
Модератор відео


З нами з: 18.01.08
Востаннє: 27.05.19
Повідомлень: 12543

2018-03-01 19:04  
Electroz написано:
можна знайти на

https://toloka.to/t81272#896249
Цитата:
Не гоже доріжці у ДТС-ХД-МА пропадати

Electroz написано:
Я зберіг у хмару на всякий випадок.

доріжка не збереглась?

Electroz 
Відео Гуртом - підтримка та поширення
Відео Гуртом - підтримка та поширення


З нами з: 18.09.14
Востаннє: 27.05.19
Повідомлень: 3389

2018-03-01 19:35  
igor911 написано:
доріжка не збереглась?

Я не маю доступу до хмари маїл.ру

Ваш часовий пояс: GMT + 2 Години

Нова тема   Відповісти