Дитсадковий поліцейський (Полісмен із дитячого садка) / Kindergarten Cop (1990) 1080p 2xUkr/Eng | Sub Eng

Нові коментарі

Нова тема   Відповісти
Автор Повідомлення
boroznaya 
Попереджень: 1
Попереджень: 1 


З нами з: 02.11.12
Востаннє: 17.02.19
Повідомлень: 2967

2018-03-01 11:26  
Дитсадковий поліцейський (Полісмен із дитячого садка) / Kindergarten Cop (1990) 1080p 2xUkr/Eng | Sub Eng

Дитсадковий поліцейський (Полісмен із дитячого садка) / Kindergarten Cop (1990) 1080p 2xUkr/Eng | Sub Eng


«Під прикриттям і в облозі»


Жанр: бойовик, комедія, трилер, кримінальний
Країна: США



Кінокомпанія: Universal Pictures, Imagine Entertainment
Режисер: Айван Райтман
Актори: Арнольд Шварценеггер, Пенелопа Енн Міллер, Памела Рід, Лінда Гант, Річард Тайсон, Керол Бейкер, Кеті Моріарті, Сара Роуз, Карр, Крістіан та Джозеф Казінс, Том Дуган

Сюжет:
Детектив Джон Кімбл (Арнольд Шварценеггер) полює за наркоділком Калленом Крісом (Річард Тайсон). Поліцейські розробляють складну операцію по збору доказів проти злочинця. Їм необхідно вийти на колишню дружину Каллена, що втекла разом з його грошима і сином Домініком. Для цього співробітниця поліції Фібі О'хара збирається потрапити в школу, де навчається Домінік, Джон Кімбл мав прикривати її в разі небезпеки.
Ще навіть не діставшись до школи, Фібі важко захворіла на кишковий грип. Операція під загрозою зриву - Джону доводиться брати ініціативу в свої руки. Він сам стає вихователем. Кімбл може впоратися з запеклим злочинцем, але тут на нього чекає нелегке випробування. У підсумку він зумів знайти підхід до дітей і навіть заручитися підтримкою чарівної виховательки.


Тривалість: 01:51:14
Якість: 1080p

Відео:
кодек:
розмір кадру: 1920x1040
бітрейт: 13.5 Мб/с

Аудіо # 1: ,
мова: українська
переклад: багатоголосий закадровий
кодек: 2.0
бітрейт: 192 кб/с

Аудіо # 2: ,
мова: українська
переклад: багатоголосий закадровий
кодек: 2.0
бітрейт: 192 кб/с

Аудіо # 3:
мова: англійська
переклад: оригінал
кодек: 2.0
бітрейт: 1510 кб/с

Субтитри:
мова: англійська
тип: програмні (м'які)
формат: *.srt
Info
D:\Завантаження\Kindergarten Cop (1990) [2xUkr, Eng, sub. Eng] 1080p [Hurtom].
General
Unique ID : 79660038869038157978375505732046095243 (0x3BEDF725F468FA39C20573AB3BE3038B)
Complete name : D:\Завантаження\Kindergarten Cop (1990) [2xUkr, Eng, sub. Eng] 1080p [Hurtom].
Format :
Format version : Version 4 / Version 2
File size : 12.2 GiB
Duration : 1h 51mn
Overall bit rate : 15.7 Mbps
Encoded date : UTC 2018-03-01 07:33:39
Writing application : v20.0.0 ('I Am The Sun') 64-bit
Writing library : libebml v1.3.5 + v1.4.8
DURATION : 01:50:42.240000000
NUMBER_OF_FRAMES : 207570
NUMBER_OF_BYTES : 159413760
_STATISTICS_WRITING_APP : v20.0.0 ('I Am The Sun') 64-bit
_STATISTICS_WRITING_DATE_UTC : 2018-03-01 07:33:39
_STATISTICS_TAGS : BPS DURATION NUMBER_OF_FRAMES NUMBER_OF_BYTES

Video #1
ID : 1
Format : AVC
Format/Info : Advanced Video Codec
Format profile : [email protected]
Format settings, CABAC : Yes
Format settings, ReFrames : 4 frames
Codec ID : V_MPEG4/ISO/AVC
Duration : 1h 51mn
Bit rate : 13.5 Mbps
Width : 1 920 pixels
Height : 1 040 pixels
Display aspect ratio : 16:9
Frame rate : 23.976 fps
Color space : YUV
Chroma subsampling : 4:2:0
Bit depth : 8 bits
Scan type : Progressive
Bits/(Pixel*Frame) : 0.282
Stream size : 10.5 GiB (86%)
Writing library : core 138 r2358 9e941d1
Encoding settings : cabac=1 / ref=4 / deblock=1:-1:-1 / analyse=0x3:0x113 / me=umh / subme=10 / psy=1 / psy_rd=1.00:0.15 / mixed_ref=1 / me_range=32 / chroma_me=1 / trellis=2 / 8x8dct=1 / cqm=0 / deadzone=21,11 / fast_pskip=0 / chroma_qp_offset=-3 / threads=6 / lookahead_threads=1 / sliced_threads=0 / nr=0 / decimate=1 / interlaced=0 / bluray_compat=0 / constrained_intra=0 / bframes=8 / b_pyramid=2 / b_adapt=2 / b_bias=0 / direct=1 / weightb=1 / open_gop=0 / weightp=2 / keyint=230 / keyint_min=23 / scenecut=40 / intra_refresh=0 / rc_lookahead=40 / rc=crf / mbtree=0 / crf=20.0 / qcomp=0.60 / qpmin=0 / qpmax=69 / qpstep=4 / vbv_maxrate=40000 / vbv_bufsize=50000 / crf_max=0.0 / nal_hrd=none / ip_ratio=1.40 / pb_ratio=1.30 / aq=1:1.00
Language : English
Default : Yes
Forced : No
DURATION : 01:51:14.084000000
NUMBER_OF_FRAMES : 160018
NUMBER_OF_BYTES : 11527531863
_STATISTICS_WRITING_APP : v20.0.0 ('I Am The Sun') 64-bit
_STATISTICS_WRITING_DATE_UTC : 2018-03-01 07:33:39
_STATISTICS_TAGS : BPS DURATION NUMBER_OF_FRAMES NUMBER_OF_BYTES

Audio #2
ID : 2
Format : AC-3
Format/Info : Audio Coding 3
Mode extension : CM (complete main)
Codec ID : A_AC3
Duration : 1h 51mn
Bit rate mode : Constant
Bit rate : 192 Kbps
Channel(s) : 2 channels
Channel positions : Front: L R
Sampling rate : 48.0 KHz
Bit depth : 16 bits
Compression mode : Lossy
Stream size : 153 MiB (1%)
Title : НЛО, ТРК "Україна"
Language : Ukrainian
Default : Yes
Forced : No

Audio #3
ID : 3
Format : AC-3
Format/Info : Audio Coding 3
Mode extension : CM (complete main)
Codec ID : A_AC3
Duration : 1h 51mn
Bit rate mode : Constant
Bit rate : 192 Kbps
Channel(s) : 2 channels
Channel positions : Front: L R
Sampling rate : 48.0 KHz
Bit depth : 16 bits
Compression mode : Lossy
Stream size : 153 MiB (1%)
Title : Новий, ICTV
Language : Ukrainian
Default : No
Forced : No

Audio #4
ID : 4
Format :
Format/Info : Digital Theater Systems
Codec ID : A_DTS
Duration : 1h 51mn
Bit rate mode : Constant
Bit rate : 1 510 Kbps
Channel(s) : 2 channels
Channel positions : Front: L R
Sampling rate : 48.0 KHz
Bit depth : 24 bits
Compression mode : Lossy
Stream size : 1.17 GiB (10%)
Language : English
Default : No
Forced : No

Text #5
ID : 5
Format : UTF-8
Codec ID : S_TEXT/UTF8
Codec ID/Info : UTF-8 Plain Text
Language : English
Default : Yes
Forced : No
Скріншоти









Висловлюю щиру подяку Гуртомівцям:
Доріжки - rooster, urij546724
Запис з ТБ - Merdiff, Bohdan237
Український постер - rooster

Джерело:
Особиста оцінка: 10 - без зайвих вагань рекомендую всім!


Срібний реліз (на рейтинг впливає 50% завантаженого)
 Трекер:    Зареєстрований   

Завантажити / скачати фільм українською



відео для новачків



 Зареєстрований:   2018-03-01 17:50
 Розмір:   12.21 GB 
 Оцінка фільму:   8.8/10 (Голосів: 12)
   
boroznaya 
Попереджень: 1
Попереджень: 1 


З нами з: 02.11.12
Востаннє: 17.02.19
Повідомлень: 2967

2018-03-01 11:34  
Раліз ввечері!
Lil`Antoni 
VIP


З нами з: 25.02.12
Востаннє: 18.02.19
Повідомлень: 685

2018-03-01 13:07  
Супер фільм, пам'ятаю його. Арні молодець тут.
Gabriel Solis 
Свій


З нами з: 10.01.12
Востаннє: 06.02.19
Повідомлень: 92

2018-03-01 15:51  
Обожнюю цей фільм!!
boroznaya 
Попереджень: 1
Попереджень: 1 


З нами з: 02.11.12
Востаннє: 17.02.19
Повідомлень: 2967

2018-03-01 17:47  
Фільм на роздачі!
Всім приємного перегляду!

bot 
робот


З нами з: 30.09.07
Востаннє: 26.05.05
Повідомлень: 20705

2018-03-01 17:48  
Тему перенесено з Анонси релізів до форуму Фільми в HD


boroznaya

Dexter3 
Частий відвідувач


З нами з: 03.12.10
Востаннє: 03.02.19
Повідомлень: 35

2018-03-01 19:24  
Який переклад кращий до душі на сприйняття? Wink (1) Дякую звісно за реліз!
boroznaya 
Попереджень: 1
Попереджень: 1 


З нами з: 02.11.12
Востаннє: 17.02.19
Повідомлень: 2967

2018-03-01 19:28  
Dexter3 написано:
Який переклад кращий до душі на сприйняття?

Мені до душі переклад від ТРК "Україна". Вам також раджу з ним переглянути. Це Аудіо # 1.

Ваш часовий пояс: GMT + 2 Години

Нова тема   Відповісти