Врятувати рядового Раяна / Врятування рядового Раяна / Saving Private Ryan (1998) 1080p 2xUkr/Eng | Sub Eng

Нові коментарі

Нова тема   Відповісти
Автор Повідомлення
Argentum 
Поважний учасник


З нами з: 25.09.11
Востаннє: 18.12.18
Повідомлень: 152

2018-02-27 14:44  
Врятувати рядового Раяна / Врятування рядового Раяна / Saving Private Ryan (1998) 1080p 2xUkr/Eng | Sub Eng

Врятувати рядового Раяна / Врятування рядового Раяна / Saving Private Ryan (1998) 1080p 2xUkr/Eng | Sub Eng


Жанр: драма, екшн
Країна: США

Top 250 #29

Кінокомпанія: DreamWorks SKG, Paramount Pictures, Amblin Entertainment
Режисер: Стівен Спілберґ
Актори: Том Генкс, Том Сайзмoр, Едвард Бернс, Баррі Пеппер, Адам Ґолдберґ, Він Дізель, Джованні Рібізі, Джеремі Девіс, Мет Деймон, Тед Дансон та інші.

Сюжет:
Ви побачите війну очима американських солдатів, які здійснили висадку в Нормандії в так званий "День Д", що назавжди увійшов до літопису Другої Світової війни. Капітан Джон Міллер (Том Хенкс) отримує важке завдання. Разом із загоном з восьми чоловік Міллер повинен відправитися в тил ворога на пошуки рядового Джеймса Райана, три рідних брати якого, майже одночасно загинули на полях битв. Командування прийняло рішення демобілізувати Райана і відправити його на батьківщину до безутішної матері. Але для того, щоб знайти і врятувати солдата, крихітному загону доведеться пройти через всі кола пекла.


Тривалість: 02:48:21
Якість:
Відео:
кодек:
розмір кадру: 1920 х 1036
бітрейт: 17.3 Мб/с

Аудіо # 1:
мова: українська
переклад: багатоголосий закадровий
кодек: 5.1
бітрейт: 384 кб/с

Аудіо # 2:
мова: українська
переклад: багатоголосий закадровий
кодек: 2.0
бітрейт: 192 кб/с

Аудіо # 3:
мова: англійська
переклад: оригінал
кодек: 5.1
бітрейт: 640 кб/с

Субтитри:
мова: англійська
тип: пререндерні
формат: *.pgs
Info
General
Unique ID : 137935387857466757288428499937718796099 (0x67C563AED606CED20FFC594C67A17F43)
Complete name : Saving Private Ryan (1998) [Ukr, Eng] 1080p [Hurtom].
Format :
Format version : Version 4 / Version 2
File size : 21.9 GiB
Duration : 2 h 48 min
Overall bit rate : 18.6 Mb/s
Movie name : Saving Private Ryan (1998)
Encoded date : UTC 2018-02-27 08:03:42
Writing application : v21.0.0 ('Tardigrades Will Inherit The Earth') 64-bit
Writing library : libebml v1.3.5 + v1.4.8
Attachments : ryan2_550.jpg

Video
ID : 1
Format : AVC
Format/Info : Advanced Video Codec
Format profile : [email protected]
Format settings : CABAC / 4 Ref Frames
Format settings, CABAC : Yes
Format settings, ReFrames : 4 frames
Codec ID : V_MPEG4/ISO/AVC
Duration : 2 h 48 min
Bit rate : 17.3 Mb/s
Width : 1 920 pixels
Height : 1 036 pixels
Display aspect ratio : 1.85:1
Frame rate mode : Constant
Frame rate : 23.976 (24000/1001) FPS
Color space : YUV
Chroma subsampling : 4:2:0
Bit depth : 8 bits
Scan type : Progressive
Bits/(Pixel*Frame) : 0.364
Stream size : 20.4 GiB (93%)
Title : AVC @ 17.3 Mbps
Writing library : core 148 r2795 aaa9aa8
Encoding settings : cabac=1 / ref=4 / deblock=1:-3:-3 / analyse=0x3:0x133 / me=umh / subme=11 / psy=1 / psy_rd=1,00:0,30 / mixed_ref=1 / me_range=48 / chroma_me=1 / trellis=2 / 8x8dct=1 / cqm=0 / deadzone=21,11 / fast_pskip=0 / chroma_qp_offset=-4 / threads=6 / lookahead_threads=1 / sliced_threads=0 / nr=0 / decimate=1 / interlaced=0 / bluray_compat=0 / constrained_intra=0 / bframes=8 / b_pyramid=2 / b_adapt=2 / b_bias=0 / direct=3 / weightb=1 / open_gop=0 / weightp=2 / keyint=240 / keyint_min=24 / scenecut=40 / intra_refresh=0 / rc_lookahead=60 / rc=crf / mbtree=0 / crf=21,0 / qcomp=0,60 / qpmin=0 / qpmax=69 / qpstep=4 / vbv_maxrate=62500 / vbv_bufsize=78125 / crf_max=0,0 / nal_hrd=none / filler=0 / ip_ratio=1,40 / pb_ratio=1,30 / aq=1:1,00
Language : English
Default : Yes
Forced : Yes
Color range : Limited
Color primaries : BT.709
Transfer characteristics : BT.709
Matrix coefficients : BT.709

Audio #1
ID : 2
Format : AC-3
Format/Info : Audio Coding 3
Codec ID : A_AC3
Duration : 2 h 48 min
Bit rate mode : Constant
Bit rate : 384 kb/s
Channel(s) : 6 channels
Channel positions : Front: L C R, Side: L R, LFE
Sampling rate : 48.0 kHz
Frame rate : 31.250 FPS (1536 SPF)
Bit depth : 16 bits
Compression mode : Lossy
Stream size : 462 MiB (2%)
Title : 5.1 @ 384 Kbps # ICTV
Language : Ukrainian
Service kind : Complete Main
Default : Yes
Forced : Yes

Audio #2
ID : 3
Format : AC-3
Format/Info : Audio Coding 3
Codec ID : A_AC3
Duration : 2 h 48 min
Bit rate mode : Constant
Bit rate : 192 kb/s
Channel(s) : 2 channels
Channel positions : Front: L R
Sampling rate : 48.0 kHz
Frame rate : 31.250 FPS (1536 SPF)
Bit depth : 16 bits
Compression mode : Lossy
Stream size : 231 MiB (1%)
Title : 2.0 @ 192 Kbps # НТН
Language : Ukrainian
Service kind : Complete Main
Default : No
Forced : No

Audio #3
ID : 4
Format : AC-3
Format/Info : Audio Coding 3
Codec ID : A_AC3
Duration : 2 h 48 min
Bit rate mode : Constant
Bit rate : 640 kb/s
Channel(s) : 6 channels
Channel positions : Front: L C R, Side: L R, LFE
Sampling rate : 48.0 kHz
Frame rate : 31.250 FPS (1536 SPF)
Bit depth : 16 bits
Compression mode : Lossy
Stream size : 771 MiB (3%)
Title : 5.1 @ 640 Kbps
Language : English
Service kind : Complete Main
Default : No
Forced : No

Text
ID : 5
Format : PGS
Codec ID : S_HDMV/PGS
Codec ID/Info : Picture based subtitle format used on BDs/HD-DVDs
Duration : 2 h 37 min
Bit rate : 34.2 kb/s
Count of elements : 3354
Stream size : 38.5 MiB (0%)
Language : English
Default : No
Forced : No
Скріншоти









Джерело: &
Особиста оцінка: 10 - без зайвих вагань рекомендую всім!


Срібний реліз (на рейтинг впливає 50% завантаженого)
 Трекер:    Зареєстрований   

Завантажити / скачати фільм українською



відео для новачків



 Зареєстрований:   2018-02-27 14:44
 Розмір:   21.86 GB 
 Оцінка фільму:   10/10 (Голосів: 17)
   
Magda-Lena 
Частий відвідувач


З нами з: 19.01.11
Востаннє: 18.12.18
Повідомлень: 48

2018-10-01 13:58  
Для бажаючих завантажити фільм з сервера: Врятувати рядового Раяна - Saving Private Ryan (1998) UHD 1080p.REMASTER.UKR.HTH_(5 GB)
Ваш часовий пояс: GMT + 2 Години

Нова тема   Відповісти