Шаман / The Shaman [2015] 1080p Ukr/Eng

Нові коментарі

Нова тема   Відповісти
Автор Повідомлення
Arch Enemy 
VIP


З нами з: 30.08.12
Востаннє: 14.01.21
Повідомлень: 1941

2018-02-26 22:51  
Шаман / The Shaman


Вікове обмеження: 16+

Жанр: трилер, драма, фантастика
Країна: Японія, Австрія



Прем'єра: 2015.04.18
Режисер: Марко Калантарі
Сценарій: Марко Калантарі
Актори: Денні Шайлер, Девід Саєрс, Сюзен Вуест, Едмунд Ягер, Адам Томас Врайт, Антон Ноорі, Стефан Бернхард, Майкл Ріс та інші.

Сюжет:
2204 рік, 73 роки людство знаходиться у стані війни. Разом із значним розвитком військової техніки, було заново відкрито знання шаманів. Але з цілителів вони перетворилися у найбільш небезпечну зброю людства.

Тривалість: 17 хв. 23 сек.
Відео:
якість:
контейнер:
кодек:
частота кадрів: 24 кадрів/сек.
розмір кадру: 1920х1080 пікс.
бітрейт: ~3928 кбіт/сек.
бітність: 8 біт

Аудіо # 1:
мова: українська, двоголосе закадрове озвучення.
кодек: Vorbis
кількість каналів: 2.0
бітрейт: 256 кбіт/сек.
частота: 48000 Гц

Аудіо # 2:
мова: англійська, оригінал
кодек:
кількість каналів: 2.0
бітрейт: 256 кбіт/сек.
частота: 48000 Гц

Субтитри:
мова: українська, повні
формат:
тип: програмні, м'які, внутрішні

Джерело озвучення та релізу: AniUA

текст читали: Твій Татко та Артимко
переклад: katzered
робота зі звуком: Твій Татко


MI
General
Unique ID : 186838853001848991422724008432068583829 (0x8C8FDAAB5A168AD4B086B439740DE195)
Complete name : E:\Anime\[AniUA]_The_Shaman_2015_[1080p]_[TviyTatko & Artymko].
Format :
Format version : Version 4 / Version 2
File size : 547 MiB
Duration : 17 min 25 s
Overall bit rate mode : Variable
Overall bit rate : 4 389 kb/s
Movie name : shaman2015 sub ukr katzered [email protected]
Encoded date : UTC 2018-02-26 19:09:07
Writing application : v7.0.0 ('Where We Going') 64bit built on Jun 9 2014 15:16:27
Writing library : libebml v1.3.0 + v1.4.1

Video
ID : 1
Format : AVC
Format/Info : Advanced Video Codec
Format profile : [email protected]
Format settings : CABAC / 4 Ref Frames
Format settings, CABAC : Yes
Format settings, ReFrames : 4 frames
Codec ID : V_MPEG4/ISO/AVC
Duration : 17 min 23 s
Bit rate : 3 928 kb/s
Width : 1 920 pixels
Height : 1 080 pixels
Display aspect ratio : 16:9
Frame rate mode : Constant
Frame rate : 24.000 FPS
Color space : YUV
Chroma subsampling : 4:2:0
Bit depth : 8 bits
Scan type : Progressive
Bits/(Pixel*Frame) : 0.079
Stream size : 488 MiB (89%)
Title : shaman2015 sub ukr katzered
Writing library : core 148 r11 73ae2d1
Encoding settings : cabac=1 / ref=4 / deblock=1:0:0 / analyse=0x3:0x113 / me=umh / subme=8 / psy=1 / psy_rd=1.00:0.00 / mixed_ref=1 / me_range=16 / chroma_me=1 / trellis=1 / 8x8dct=1 / cqm=0 / deadzone=21,11 / fast_pskip=1 / chroma_qp_offset=-2 / threads=34 / lookahead_threads=5 / sliced_threads=0 / nr=0 / decimate=1 / interlaced=0 / bluray_compat=0 / stitchable=1 / constrained_intra=0 / bframes=3 / b_pyramid=2 / b_adapt=2 / b_bias=0 / direct=3 / weightb=1 / open_gop=0 / weightp=2 / keyint=infinite / keyint_min=24 / scenecut=40 / intra_refresh=0 / rc_lookahead=50 / rc=crf / mbtree=1 / crf=20.0 / qcomp=0.60 / qpmin=5 / qpmax=69 / qpstep=4 / vbv_maxrate=4950 / vbv_bufsize=13500 / crf_max=0.0 / nal_hrd=none / filler=0 / ip_ratio=1.40 / aq=1:1.00
Language : English
Default : Yes
Forced : Yes
Color range : Limited
Color primaries : BT.709
Transfer characteristics : BT.709
Matrix coefficients : BT.709

Audio #1
ID : 2
Format : Vorbis
Format settings, Floor : 1
Codec ID : A_VORBIS
Duration : 17 min 25 s
Bit rate mode : Variable
Bit rate : 256 kb/s
Channel(s) : 2 channels
Sampling rate : 48.0 kHz
Frame rate : 93.467 FPS (514 SPF)
Compression mode : Lossy
Stream size : 26.0 MiB (5%)
Title : ТвійТатко & Artymko
Writing application : REAPER
Writing library : libVorbis (Everywhere) (20100325 (Everywhere))
Language : Ukrainian
Default : Yes
Forced : Yes

Audio #2
ID : 3
Format :
Format/Info : Advanced Audio Codec
Format profile : LC
Codec ID : A_AAC-2
Duration : 17 min 23 s
Bit rate : 256 kb/s
Channel(s) : 2 channels
Channel positions : Front: L R
Sampling rate : 48.0 kHz
Frame rate : 46.875 FPS (1024 SPF)
Compression mode : Lossy
Stream size : 31.8 MiB (6%)
Language : English
Default : No
Forced : No

Text
ID : 4
Format :
Codec ID : S_TEXT/
Codec ID/Info : Advanced Sub Station Alpha
Duration : 15 min 37 s
Bit rate : 137 b/s
Count of elements : 209
Compression mode : Lossless
Stream size : 15.8 KiB (0%)
Title : Ukrainian Subs by katzered
Language : Ukrainian
Default : No
Forced : No

Якщо вам подобаються наші релізи, і є бажання чимось допомогти проекту, то будемо раді, якщо ви підтримаєте нас фінансово. І, якщо хочете подякувати за якесь конкретне аніме, або форсувати процес озвучення, прохання вказати у коментарі до переказу.
Підтримати/подякувати «AniUA»
Також у нас можна замовити переклад або озвучення
.


Авторський реліз (завантажувати можна без реєстрації)
 Трекер:    Зареєстрований   

Завантажити / скачати фільм українською



відео для новачків



 Зареєстрований:   2018-02-26 23:00
 Розмір:   547 MB 
 Оцінка фільму:   8.5/10 (Голосів: 14)
   
Jani307 
Свій


З нами з: 09.06.14
Востаннє: 16.01.21
Повідомлень: 134

2018-02-27 10:07  
Вибачте, а чому в шапці 2018?
Arch Enemy 
VIP


З нами з: 30.08.12
Востаннє: 14.01.21
Повідомлень: 1941

2018-02-27 13:30  
Jani307 написано:
Вибачте, а чому в шапці 2018?

Перепрошую, по шаблону робив і на автопілоті вписав 2018.
Виправив.

oster_ok 
Відео Гуртом - підтримка та поширення
Відео Гуртом - підтримка та поширення


З нами з: 20.11.11
Востаннє: 14.01.21
Повідомлень: 180

2018-04-02 22:03  
а що це за короткометражка?
є продовження або інші частини?

hetzendorf 
Забанено
Забанено


З нами з: 23.07.15
Востаннє: 05.01.21
Повідомлень: 2966

2019-02-02 21:12  
Чомусь усі постапокаліпсиси одноманітні, нічого нового автори вигадати не в змозі. Напевне, мені вже можна їх більше не дивитися.
3/10

trasylo 
Свій


З нами з: 24.12.16
Востаннє: 16.01.21
Повідомлень: 78

2019-04-14 09:02  
Цікавий сюжет, напружена інтрига: 9 з 10. Всім раджу до перегляду.
Ваш часовий пояс: GMT + 2 Години

Нова тема   Відповісти