Гніздо дракона / Dragon Nest: Warriors' Dawn (2014) 1080p Ukr/Eng

Нові коментарі

Нова тема   Відповісти
Автор Повідомлення
sergiyko.5 
Забанено
Забанено


З нами з: 25.02.16
Востаннє: 29.10.20
Повідомлень: 3648

2018-02-26 22:02  
Гніздо дракона / Dragon Nest: Warriors' Dawn (2014) 1080p Ukr/Eng

Гніздо дракона / Dragon Nest: Warriors' Dawn (2014) 1080p Ukr/Eng

Жанр: пригоди, сімейний, фентезі
Країна: Китай
Кінокомпанія: Mili Pictures
Режисер: Юефен Сонг
Актори: Цзяо Сюй, Гуаньлін Джі, Йінг Хуан, Давей Шен, Сянлонг Менг, Йе Сунь, Тіан Джин, Хон Шан, Цзитун Ся, Блайт Оффарт

Сюжет:
Хто б міг подумати, що завжди незграбний, але безсумнівно талановитий хлопець стане великим героєм, який врятує свою красиву планету від зла що прокинулося?

Багато років, поки легендарний Чорний дракон спав, земля Алтер зберігала крихкий мир між расами людей, ельфів і невідомими нашому світу тваринами. Коли ж він прокинувся, охоплені жахом жителі були змушені тікати крізь острів в спробі знайти порятунок.

Наш герой Ламберт в компанії своїх пухнастих друзів відправляється в шлях повний веселих розваг і пригод, зустрічаючи справжніх друзів і любов в особі прекрасної ельфійської дівчинки. Об'єднавшись, вони знаходять таємну дорогу до печери дракона, а юний воїн виконує покладену на нього найважливішу місію: він входить в довіру до Чорного Дракона, щоб з честю і гумором вийти переможцем.




Тривалість: 01:27:25
Якість:

Відео: кодек: розмір кадру: 1920 х 1032 бітрейт: 9200 кб/с
Аудіо # 1: мова: українська переклад: багатоголосий закадровий кодек: 2.0 бітрейт: 192 кб/с
Озвучення:
Аудіо # 2: мова: українська переклад: багатоголосий закадровий кодек: 2.0 бітрейт: 192 кб/с
Озвучення:
Аудіо # 3: мова: англійська переклад: професійний дубльований кодек: 5.1 бітрейт: 384 кб/с

Примітка: 1 та 2 доріжки ідентичні по голосам озвучки, різниця в тембральному складі звуку.
Про файл:
General
Unique ID : 13709155764851672978076487538284746740 (0xA5049906C72E0A28CC811C9F83CD7F4)
Complete name : D:\Documents\Torrents\Rizne\Dragon Nest.Warriors' Dawn.2014.1080p..Ukr.Eng.
Format :
Format version : Version 4
File size : 6.05 GiB
Duration : 1 h 27 min
Overall bit rate : 9 904 kb/s
Movie name : Dragon Nest. Warriors' Dawn 2014 1080p by sergiyko
Encoded date : UTC 2020-03-07 17:26:57
Writing application : v42.0.0 ('Overtime') 64-bit
Writing library : libebml v1.3.10 + v1.5.2

Video
ID : 1
Format : AVC
Format/Info : Advanced Video Codec
Format profile : [email protected]
Format settings : CABAC / 5 Ref Frames
Format settings, CABAC : Yes
Format settings, Reference : 5 frames
Codec ID : V_MPEG4/ISO/AVC
Duration : 1 h 27 min
Bit rate : 9 180 kb/s
Width : 1 920 pixels
Height : 1 032 pixels
Display aspect ratio : 1.85:1
Frame rate mode : Constant
Frame rate : 23.976 (24000/1001) FPS
Color space : YUV
Chroma subsampling : 4:2:0
Bit depth : 8 bits
Scan type : Progressive
Bits/(Pixel*Frame) : 0.193
Stream size : 5.58 GiB (92%)
Title : Dragon Nest. Warriors' Dawn 2014
Writing library : core 152 r2851 ba24899
Encoding settings : cabac=1 / ref=5 / deblock=1:-1:-1 / analyse=0x3:0x113 / me=umh / subme=9 / psy=1 / psy_rd=0.40:0.00 / mixed_ref=1 / me_range=24 / chroma_me=1 / trellis=2 / 8x8dct=1 / cqm=0 / deadzone=21,11 / fast_pskip=1 / chroma_qp_offset=-2 / threads=24 / lookahead_threads=2 / sliced_threads=0 / nr=0 / decimate=0 / interlaced=0 / bluray_compat=0 / constrained_intra=0 / bframes=6 / b_pyramid=2 / b_adapt=2 / b_bias=0 / direct=3 / weightb=1 / open_gop=0 / weightp=2 / keyint=250 / keyint_min=23 / scenecut=40 / intra_refresh=0 / rc_lookahead=60 / rc=2pass / mbtree=1 / bitrate=9180 / ratetol=1.0 / qcomp=0.70 / qpmin=0 / qpmax=69 / qpstep=4 / cplxblur=20.0 / qblur=0.5 / vbv_maxrate=50000 / vbv_bufsize=62500 / nal_hrd=none / filler=0 / ip_ratio=1.40 / aq=1:0.60
Language : English
Default : Yes
Forced : No

Audio #1
ID : 2
Format : AC-3
Format/Info : Audio Coding 3
Commercial name : Dolby Digital
Codec ID : A_AC3
Duration : 1 h 27 min
Bit rate mode : Constant
Bit rate : 192 kb/s
Channel(s) : 2 channels
Channel layout : L R
Sampling rate : 48.0 kHz
Frame rate : 31.250 FPS (1536 SPF)
Compression mode : Lossy
Stream size : 120 MiB (2%)
Title : MOV 2ch | ТЕТ
Language : Ukrainian
Service kind : Complete Main
Default : Yes
Forced : Yes

Audio #2
ID : 3
Format : AC-3
Format/Info : Audio Coding 3
Commercial name : Dolby Digital
Codec ID : A_AC3
Duration : 1 h 27 min
Bit rate mode : Constant
Bit rate : 192 kb/s
Channel(s) : 2 channels
Channel layout : L R
Sampling rate : 48.0 kHz
Frame rate : 31.250 FPS (1536 SPF)
Compression mode : Lossy
Stream size : 120 MiB (2%)
Title : MOV 2.0ch | Піксель
Language : Ukrainian
Service kind : Complete Main
Default : No
Forced : No

Audio #3
ID : 4
Format : AC-3
Format/Info : Audio Coding 3
Commercial name : Dolby Digital
Codec ID : A_AC3
Duration : 1 h 27 min
Bit rate mode : Constant
Bit rate : 384 kb/s
Channel(s) : 6 channels
Channel layout : L R C LFE Ls Rs
Sampling rate : 48.0 kHz
Frame rate : 31.250 FPS (1536 SPF)
Compression mode : Lossy
Stream size : 240 MiB (4%)
Language : English
Service kind : Complete Main
Default : No
Forced : No

Menu
00:00:00.000 : en:00:00:00.000
00:06:22.382 : en:00:06:22.382
00:11:47.331 : en:00:11:47.331
00:19:28.789 : en:00:19:28.789
00:30:26.615 : en:00:30:26.615
00:35:31.128 : en:00:35:31.128
00:45:49.746 : en:00:45:49.746
00:52:02.327 : en:00:52:02.327
00:59:43.079 : en:00:59:43.079
01:06:00.373 : en:01:06:00.373
01:11:47.136 : en:01:11:47.136
01:22:56.386 : en:01:22:56.386
Скріншоти:


Автор запису/зведення/ріпу: sergiyko


 Трекер:    Зареєстрований   

Завантажити / скачати мультфільм українською



відео для новачків



 Зареєстрований:   2020-03-07 19:37
 Розмір:   6.05 GB 
 Оцінка мультфільму:   8.8/10 (Голосів: 13)
   
Інші релізи
   Гніздо дракона / Dragon Nest: Warriors' Dawn (2014) drop_plz  7 / 0   1.46 GB   2017-04-01 15:27 
Aswerty 
Новенький


З нами з: 10.02.18
Востаннє: 30.03.19
Повідомлень: 15

2018-07-08 14:04  
Це не моє "Золотце"

Це підробка...

Мені сподобався початок мультфільма, стандартна фентезійна зав'язка, думаю багатьом це нагадало Корейські ММОРПГ. Але на-жаль, що сюжет, що персонажі, чи навіть музикальний супровід не справили позитивного враження. Особливо хочу відмітити паршивість історії.

Також варто зауважити, що озвучка чоловічих ролей досить... хм, як би виразитись... поганенька, так, поганенька підійде, чи можливо це робота зі звуком? Не розбираюсь, але звук кошмарний.

sergiyko.5 
Забанено
Забанено


З нами з: 25.02.16
Востаннє: 29.10.20
Повідомлень: 3648

2020-03-07 19:42  
Додав варіант ідентичної озвучки доріжка від ТЕТ. Запис звуку власний.
aaa4523 
VIP


З нами з: 26.07.13
Востаннє: 04.03.21
Повідомлень: 349

2020-03-07 21:44  
Друга частина-
https://toloka.to/t93112

Ps: Вирішив кинути посилання на продовження бо в них назва трохи різна, а тому якщо треба можна не знайти одразу.

Ваш часовий пояс: GMT + 2 Години

Нова тема   Відповісти