На голці / Trainspotting (1996) Remux 1080p Ukr/Eng | Sub Eng

Нові коментарі

Нова тема   Відповісти
Автор Повідомлення
staf777 
Відео Гуртом - підтримка та поширення
Відео Гуртом - підтримка та поширення


З нами з: 16.11.16
Востаннє: 20.05.19
Повідомлень: 2361

2018-02-26 15:25  
На голці / Trainspotting (1996) Remux 1080p Ukr/Eng | Sub Eng

На голці / Trainspotting (1996) Remux 1080p Ukr/Eng | Sub Eng


Жанр: драма, кримінал
Країна: Велика Британія



Кінокомпанія: Channel Four Films
Режисер: Денні Бойл (Danny Boyle)
Актори: Еван МакҐреґор (Ewan McGregor), Евен Бреммер (Ewen Bremner), Джонні Лі Міллер (Jonny Lee Miller), Кевін МакКідд (Kevin McKidd), Роберт Карлайл (Robert Carlyle), Келлі Макдональд (Kelly Macdonald), Пітер Маллен (Peter Mullan) та інші.

Сюжет:
Вибирай життя. Вибирай роботу. Вибирай кар'єру. Обирай сім'ю. Обирай великі телевізори, пральні машини, автомобілі, компакт-диск плейери, електричні консервні ножі. Обирай хороше здоров'я, низький рівень холестерину і стоматологічну страховку.

Обирай нерухомість і акуратно виплачуй внески. Вибери свій перший будинок. Вибирай своїх друзів. Вибери собі курорт і шикарні валізи. Вибери костюм-трійку кращої фірми з матеріалу найдорожчого. Вибери набір «Зроби сам», щоб було чим зайнятися недільним ранком.

Вибери зручний диван, щоб розвалитися на ньому й дивитися тупе шоу. Набивай своє черево всякою всячиною. Вибери загнивання в кінці всього і пригадай з соромом наостанок своїх дружків-покидьків, яких ти заклав щоб видертися. Обирай майбутнє. Вибирай життя.

Але навіщо мені все це? Я не став вибирати життя ... Я вибрав дещо інше ... Чому? Та тому ... Які можуть бути чому, коли ти під кайфом? Коли є героїн ...


Тривалість: 01:33:50
Якість: Remux 1080p | UK Transfer |
Відео:
кодек:
розмір кадру: 1920x1080
бітрейт: 36.0 Mб/с

Аудіо # 1:
мова: українська
переклад: двоголосий закадровий
кодек: 5.1
бітрейт: 384 кб/с

Аудіо # 2:
мова: англійська
переклад: оригінал
кодек: TrueHD 5.1
бітрейт: 1402 кб/с

Субтитри:
мова: англійська
тип: програмні (м'які)
формат: *.srt
Info
General
Unique ID : 194991441776313055955534577792286534646 (0x92B1FC5451F8AA15BE222EE715792BF6)
Complete name : K:\Trainspotting (1996) Remux 1080p [Ukr][Eng][Sub Eng][Hurtom].
Format :
Format version : Version 4 / Version 2
File size : 24.8 GiB
Duration : 1 h 33 min
Overall bit rate mode : Variable
Overall bit rate : 37.8 Mb/s
Movie name : Trainspotting (1996) Remux 1080p [Ukr][Eng][Sub Eng][Hurtom]
Encoded date : UTC 2018-02-26 12:33:39
Writing application : v9.8.0 ('Kuglblids') 64bit
Writing library : libebml v1.3.4 + v1.4.5

Video
ID : 1
Format : AVC
Format/Info : Advanced Video Codec
Format profile : [email protected]
Format settings, CABAC : Yes
Format settings, ReFrames : 2 frames
Codec ID : V_MPEG4/ISO/AVC
Duration : 1 h 33 min
Bit rate mode : Variable
Bit rate : 36.0 Mb/s
Width : 1 920 pixels
Height : 1 080 pixels
Display aspect ratio : 16:9
Frame rate mode : Constant
Frame rate : 23.976 (24000/1001) FPS
Color space : YUV
Chroma subsampling : 4:2:0
Bit depth : 8 bits
Scan type : Progressive
Bits/(Pixel*Frame) : 0.724
Stream size : 23.6 GiB (95%)
Title : На игле / Trainspotting (1996)
Language : English
Default : Yes
Forced : No

Audio #1
ID : 2
Format : AC-3
Format/Info : Audio Coding 3
Mode extension : CM (complete main)
Format settings, Endianness : Big
Codec ID : A_AC3
Duration : 1 h 33 min
Bit rate mode : Constant
Bit rate : 384 kb/s
Channel(s) : 6 channels
Channel positions : Front: L C R, Side: L R, LFE
Sampling rate : 48.0 kHz
Frame rate : 31.250 FPS (1536 spf)
Bit depth : 16 bits
Compression mode : Lossy
Stream size : 258 MiB (1%)
Title : [UA-MVO]
Language : Ukrainian
Default : Yes
Forced : Yes

Audio #2
ID : 3
Format : TrueHD
Codec ID : A_TRUEHD
Duration : 1 h 33 min
Bit rate mode : Variable
Bit rate : 1 402 kb/s
Maximum bit rate : 2 475 kb/s
Channel(s) : 6 channels
Channel positions : Front: L C R, Side: L R, LFE
Sampling rate : 48.0 kHz
Frame rate : 1 200.000 FPS (40 spf)
Compression mode : Lossless
Stream size : 941 MiB (4%)
Language : English
Default : No
Forced : No

Text
ID : 4
Format : UTF-8
Codec ID : S_TEXT/UTF8
Codec ID/Info : UTF-8 Plain Text
Duration : 1 h 30 min
Bit rate : 65 b/s
Count of elements : 1134
Stream size : 43.7 KiB (0%)
Title : Full
Language : English
Default : No
Forced : No

Menu
00:00:00.000 : :Chapter 01
00:06:13.998 : :Chapter 02
00:11:31.816 : :Chapter 03
00:16:22.272 : :Chapter 04
00:20:14.296 : :Chapter 05
00:23:42.170 : :Chapter 06
00:28:28.957 : :Chapter 07
00:34:05.501 : :Chapter 08
00:38:48.409 : :Chapter 09
00:42:13.906 : :Chapter 10
00:49:58.120 : :Chapter 11
00:56:38.812 : :Chapter 12
01:01:13.753 : :Chapter 13
01:08:31.398 : :Chapter 14
01:13:27.194 : :Chapter 15
01:18:02.678 : :Chapter 16
01:25:54.607 : :Chapter 17
01:30:41.602 : :Chapter 18
01:33:50.875 : :Chapter 19
Скріншоти



Джерело: &
Особиста оцінка: 0 - не дивився


Золотий реліз (завантажене не впливає на рейтинг)
 Трекер:    Зареєстрований   

Завантажити / скачати фільм українською



відео для новачків



 Зареєстрований:   2018-02-26 19:07
 Розмір:   24.8 GB 
 Оцінка фільму:   9.1/10 (Голосів: 12)
   
Інші релізи
   На голці / Trainspotting (1996) 1080p Ukr/Eng | Sub Eng drop_plz  1 / 0   12.08 GB   2018-07-30 07:30 
   На голці / Trainspotting (1996) AVC Ukr/Eng | Sub Eng staf777  1 / 0   2.84 GB   2018-05-31 19:18 
   На голці / Trainspotting (1996) 720p Ukr/Eng TNT.KOT  7 / 0   2.51 GB   2013-05-12 13:46 
   На голці / Trainspotting (1996) Ukr/Eng robotron005  4 / 0   1.58 GB   2013-02-03 15:18 
nazar.e30 
Новенький


З нами з: 09.01.11
Востаннє: 17.05.19
Повідомлень: 9

2018-02-26 20:47  
Дуже давно дивився цей фільм, ще російською.. Цікаво, як він буде звучати рідною мовою...
igor911 
Модератор відео


З нами з: 18.01.08
Востаннє: 21.05.19
Повідомлень: 12513

2018-02-26 20:52  
staf777 написано:
багатоголосий закадровий

звідки багатоголоска? у попередніх релізах вказано двоголоска з Гамми. Якщо це вона - вкажи в описі.
код емблемки каналу :
Код:
[img]http://toloka.to/img/dubbing/GAMMA.gif[/img]

НеЗупиняйПродакшн 
VIP


З нами з: 28.07.15
Востаннє: 21.05.19
Повідомлень: 885

2018-02-26 20:54  
Озвучення, наскільки ми розуміємо, має бути наше.
igor911 
Модератор відео


З нами з: 18.01.08
Востаннє: 21.05.19
Повідомлень: 12513

2018-02-26 20:56  
НеЗупиняйПродакшн написано:
Озвучення, наскільки ми розуміємо, має бути наше.

ви озвучили також фільм 1996 року?

НеЗупиняйПродакшн 
VIP


З нами з: 28.07.15
Востаннє: 21.05.19
Повідомлень: 885

2018-02-26 20:57  
igor911 написано:
ви озвучили також фільм 1996 року?

Перепрошуємо, на звернули увагу, що це перша частина Happy Бо вже понад тиждень тому віддали доріжку до продовження і чекаємо релізу.

Electroz 
Відео Гуртом - підтримка та поширення
Відео Гуртом - підтримка та поширення


З нами з: 18.09.14
Востаннє: 21.05.19
Повідомлень: 3375

2018-02-26 21:02  
НеЗупиняйПродакшн
Можу викласти, якщо бажаєте.

igor911 
Модератор відео


З нами з: 18.01.08
Востаннє: 21.05.19
Повідомлень: 12513

2018-02-26 21:08  
Electroz, після історії зі "зливом" звуку, доріжка має потрапляти до релізерів лише через Адміна.
Jani307 
Свій


З нами з: 09.06.14
Востаннє: 19.05.19
Повідомлень: 101

2018-02-26 21:15  
staf777 написано:
отупляющее шоу

шоу для отупіння.
тупе шоу.
шоу, що робить тупим.
етц.

Electroz 
Відео Гуртом - підтримка та поширення
Відео Гуртом - підтримка та поширення


З нами з: 18.09.14
Востаннє: 21.05.19
Повідомлень: 3375

2018-02-26 21:51  
igor911
То був не "злив" звуку, а дубляж виклали раніше. Хіба ні? Бо я якраз вантажив, той реліз Стафа.

staf777 
Відео Гуртом - підтримка та поширення
Відео Гуртом - підтримка та поширення


З нами з: 16.11.16
Востаннє: 20.05.19
Повідомлень: 2361

2018-02-26 22:32  
Electroz написано:
То був не "злив" звуку, а дубляж виклали раніше. Хіба ні? Бо я якраз вантажив, той реліз Стафа

Як раз то і був злив звуку...

Mr_GoldMan 
Новенький


З нами з: 01.12.13
Востаннє: 18.05.19
Повідомлень: 14

2018-03-23 17:56  
Допоможіть завантажити, швидкість нульова.
IronBee 
Поважний учасник


З нами з: 08.02.10
Востаннє: 19.05.19
Повідомлень: 219

2018-03-24 21:01  
Файний фільм
Ваш часовий пояс: GMT + 2 Години

Нова тема   Відповісти