Світанкова Пісня Лу / Yoake Tsugeru Lu no Uta (2017) 1080p Jap | sub Ukr

Нові коментарі

Нова тема   Відповісти
Автор Повідомлення
Amanogawa 
VIP


З нами з: 27.09.17
Востаннє: 05.04.20
Повідомлень: 647

2018-02-25 22:54  
Роздача переїжджає на https://toloka.to/t104435


Світанкова Пісня Лу / Yoake Tsugeru Lu no Uta (2017) 1080p Jap | sub Ukr

Світанкова Пісня Лу / Yoake Tsugeru Lu no Uta (2017) 1080p Jap | sub Ukr


Жанр: Комедія, Музика
Країна: Японія




Кінокомпанія: Science Saru
Режисер: Юаса Масаакі
Сюжет:
Кай живе у тихому місті Хінаші, на березі моря і більше за все на світі хоче звідти вибратися. В нього є хобі — він робить музику і викладає її в соцмережі. Двоє його друзів дізнаються, що за нікнеймом merman, яким він підписує музичні твори — стоїть саме він, і запрошують його до себе в гурт на репетицію. Саме там Кай і зустрічає маленьку русалоньку…


Тривалість: 1г 51хв
Якість:
Відео:
кодек:
розмір кадру: 1920 х 1080
бітрейт: 6500 кб/с

Аудіо:
мова: японська
переклад: оригінал
кодек: 2.0
бітрейт: 411 кб/с

Субтитри:
мова: українська
тип: програмні (м'які)
формат: *.
Info
General
General
Unique ID : 162840392707934271796058708049969448943 (0x7A81EB3991ECA6E67CB3208C543287EF)
Complete name : E:\Video\Світанкова Пісня Лу [Mitsuruki].
Format :
Format version : Version 4
File size : 5.44 GiB
Duration : 1 h 51 min
Overall bit rate : 6 967 kb/s
Encoded date : UTC 2019-01-20 14:31:21
Writing application : v30.1.0 ('Forever And More') 64-bit
Writing library : libebml v1.3.6 + v1.4.9

Video
ID : 1
Format : AVC
Format/Info : Advanced Video Codec
Format profile : High [email protected]
Format settings : CABAC / 16 Ref Frames
Format settings, CABAC : Yes
Format settings, ReFrames : 16 frames
Codec ID : V_MPEG4/ISO/AVC
Duration : 1 h 51 min
Bit rate : 6 553 kb/s
Width : 1 920 pixels
Height : 1 080 pixels
Display aspect ratio : 16:9
Frame rate mode : Constant
Frame rate : 23.976 (24000/1001) FPS
Color space : YUV
Chroma subsampling : 4:2:0
Bit depth : 10 bits
Scan type : Progressive
Bits/(Pixel*Frame) : 0.132
Stream size : 5.12 GiB (94%)
Writing library : core 142 r2431+42 c69a006 tMod [[email protected] X86_64]
Encoding settings : cabac=1 / ref=16 / deblock=1:0:0 / analyse=0x3:0x133 / me=umh / subme=10 / psy=1 / fade_compensate=0.00 / psy_rd=1.00:0.00 / mixed_ref=1 / me_range=24 / chroma_me=1 / trellis=2 / 8x8dct=1 / cqm=0 / deadzone=21,11 / fast_pskip=1 / chroma_qp_offset=-2 / threads=6 / lookahead_threads=1 / sliced_threads=0 / nr=0 / decimate=1 / interlaced=0 / bluray_compat=0 / constrained_intra=0 / fgo=0 / bframes=16 / b_pyramid=2 / b_adapt=2 / b_bias=0 / direct=3 / weightb=1 / open_gop=0 / weightp=2 / keyint=250 / keyint_min=23 / scenecut=40 / intra_refresh=0 / rc_lookahead=60 / rc=crf / mbtree=1 / crf=16.5000 / qcomp=0.60 / qpmin=0:0:0 / qpmax=81:81:81 / qpstep=4 / ip_ratio=1.40 / aq=3:0.70 / aq-sensitivity=10.00 / aq-factor=1.00:1.00:1.00 / aq2=0 / aq3=0
Default : Yes
Forced : No

Audio
ID : 2
Format : LC
Format/Info : Advanced Audio Codec Low Complexity
Codec ID : A_AAC-2
Duration : 1 h 51 min
Bit rate : 411 kb/s
Channel(s) : 2 channels
Channel layout : L R
Sampling rate : 48.0 kHz
Frame rate : 46.875 FPS (1024 SPF)
Compression mode : Lossy
Delay relative to video : 9 ms
Stream size : 329 MiB (6%)
Language : Japanese
Default : Yes
Forced : No

Text
ID : 3
Format :
Codec ID : S_TEXT/
Codec ID/Info : Advanced Sub Station Alpha
Duration : 1 h 51 min
Bit rate : 105 b/s
Count of elements : 1356
Compression mode : Lossless
Stream size : 86.1 KiB (0%)
Title : Mitsuruki
Language : Ukrainian
Default : Yes
Forced : Yes
Скріншоти






Джерело: nyaa + переклад Mitsuruki.
Особиста оцінка
Дивовижна робота від Юаси. В ній усе на висоті: і танці на 24 фпс, і неймовірні ракурси, і ті фізичні зміни на обличчі, коли батько Юхо гнівався. Аніме одне на тисячу. Беззаперечні 10 балів!


Золотий реліз (завантажене не впливає на рейтинг)
 Трекер:    Зареєстрований   

Завантажити / скачати аніме українською



відео для новачків



 Зареєстрований:   2019-01-20 17:57
 Розмір:   5.44 GB 
 Оцінка аніме:   10/10 (Голосів: 2)
   
Ham_R 
Відео Гуртом - дизайнер
Відео Гуртом - дизайнер


З нами з: 23.04.13
Востаннє: 04.04.20
Повідомлень: 117

2018-02-27 19:09  
якщо потрібен poster ...напишите
11FrYkT 
Модератор відео


З нами з: 20.02.11
Востаннє: 05.04.20
Повідомлень: 6703

2018-02-27 19:21  
Mitsuruki написано:
Jap | sub Ukr

1080p

скрыншоти мають бути у форматы пнг

Amanogawa 
VIP


З нами з: 27.09.17
Востаннє: 05.04.20
Повідомлень: 647

2018-02-27 19:28  
Ham_R
Пишемо.
11FrYkT
Замінено.

11FrYkT 
Модератор відео


З нами з: 20.02.11
Востаннє: 05.04.20
Повідомлень: 6703

2018-02-27 23:05  
Mitsuruki написано:
Замінено.

тільки останній скрін не такого розміру (той що з сабами, також нагадую що мінімум 1 має бути з сабами)

Amanogawa 
VIP


З нами з: 27.09.17
Востаннє: 05.04.20
Повідомлень: 647

2018-02-28 00:42  
11FrYkT
А тепер?

EvGaS 
Відео Гуртом - субтитрування
Відео Гуртом - субтитрування


З нами з: 27.02.12
Востаннє: 31.07.19
Повідомлень: 5669

2018-05-18 08:42  
Надзвичайно героєцентричний всесвіт. Усе, що не має якоїсь взаємодії з героєм, чи якоїсь цінності для глядача — можна вважати що й не існує. Усі дії чи трюки від режисера та сценариста спрямовані на це — розповідають тільки про русалок, о, тут треба додати подружку, яка вистрибує нізвідки. Містяни існують лише там, де мають привітатися з ГГ і так далі.

Мультфільм має дуже мале узгодження. ГГ запускає музику з ноутбуку, а вона грає навіть не як зі слабеньких динаміків, і навіть не як з гарного музичного центру, а як з дуже дорогої хайфайної стереопари якогось аудіофіла. Чи випадок фотографування на човні — показано сценку з фотографуванням, програє типовий класичний звук «клацання під аналог» фотокамери зі смартфону. Але. Смартфон у чохлі. Без вічка для об’єктиву. ЛІЛ.

Радує той позитив, що колектив його робив весело та на розвагах усіляких, чого вартує лишень шарж на друга-зікру Губки Боба, котрий їде на кабріолеті.
Тож автори серйозно мульт не сприймали, чого і вам не раджу. Це такеньке веселеньке… фентезі-казочка. Не шукайте тут сенсу, його тут і від початку не планували. Просто щось таке …типу прикольне схотілося зробити, та й зробили.

Amanogawa 
VIP


З нами з: 27.09.17
Востаннє: 05.04.20
Повідомлень: 647

2019-01-20 17:58  
Оновили роздачу

Тепер тут одна доріжка, текст зроблено читабельнішим, виправлено багато помилок, трошки налагоджені таймінги. Цей реліз фінальний — далі хіба що озвучку додамо.

EvGaS 
Відео Гуртом - субтитрування
Відео Гуртом - субтитрування


З нами з: 27.02.12
Востаннє: 31.07.19
Повідомлень: 5669

2019-01-20 18:02  
Mitsuruki написано:
більш читабельним

москалізм — читабельнішим.

Mitsuruki написано:
виправлено
підправлені

намагайтесь не поширювати правець, а скористайтеся таким словом, як лад
або іншими

leicheman 
Відео Гуртом - фільмокрай
Відео Гуртом - фільмокрай


З нами з: 03.07.14
Востаннє: 05.04.20
Повідомлень: 4575

2019-01-20 18:16  
Може ви ще будете робити легші релізи не 10 бітні?
Доводиться вантажити реліз , витягати субтитри і шукати 8біт ріп аби подивитися ваші переклади.

Amanogawa 
VIP


З нами з: 27.09.17
Востаннє: 05.04.20
Повідомлень: 647

2019-01-20 18:38  
leicheman
Нормальний розмір відео буде на ТГ каналі та Анітюбі. Але трошки пізніше.

leicheman 
Відео Гуртом - фільмокрай
Відео Гуртом - фільмокрай


З нами з: 03.07.14
Востаннє: 05.04.20
Повідомлень: 4575

2019-01-20 18:45  
Mitsuruki написано:
Нормальний розмір відео буде на ТГ каналі

Завантажив я вчора вже один такий "легший" реліз з телеграму, А там той самий 10біт ріп.
Я не про розмір ріпу мав на увазі, А про легший для заліза.

Amanogawa 
VIP


З нами з: 27.09.17
Востаннє: 05.04.20
Повідомлень: 647

2019-01-20 18:59  
leicheman
Ну з нього хоч витягати саби легше, погодьтеся.

Серіали в нас восьмибітні… здається.

leicheman 
Відео Гуртом - фільмокрай
Відео Гуртом - фільмокрай


З нами з: 03.07.14
Востаннє: 05.04.20
Повідомлень: 4575

2019-01-20 19:38  
Mitsuruki написано:
Ну з нього хоч витягати саби легше, погодьтеся.

Додавайте тоді вже до релізу субтитри окремим файлом, щоб не вантажити цілий реліз який і так видалиться.

Amanogawa 
VIP


З нами з: 27.09.17
Востаннє: 05.04.20
Повідомлень: 647

2019-01-20 22:09  
leicheman
Коли додаємо, хтось свариться, коли не додаємо — теж сваряться.

Якщо вже так, то пишіть в ТГ чи ПП щоб дістали вам. Ми і дістанемо.

Amanogawa 
VIP


З нами з: 27.09.17
Востаннє: 05.04.20
Повідомлень: 647

2019-09-29 23:42  
Роздача переїжджає на https://toloka.to/t104435
Ваш часовий пояс: GMT + 2 Години

Нова тема   Відповісти