Інферно / Inferno (2016) UHD Remux 4K 2160p HDR H.265 Ukr/Eng | Sub Ukr/Eng

Нові коментарі

Нова тема   Відповісти
Автор Повідомлення
Vladuk88 
Свій


З нами з: 14.10.09
Востаннє: 25.05.19
Повідомлень: 67

2018-02-25 17:24  
Інферно / Inferno (2016) UHD Remux 4K 2160p HDR H.265 Ukr/Eng | Sub Ukr/Eng

Інферно / Inferno (2016) UHD Remux 4K 2160p HDR H.265 Ukr/Eng | Sub Ukr/Eng


Жанр: бойовик, трилер, драма, кримінальний, детектив, пригодницький
Країна: США, Угорщина



Кінокомпанія: Columbia Pictures, Sony Pictures Studios, Imagine Entertainment, LStar Capital, Mid Atlantic Films
Режисер: Рон Говард / Ron Howard
Актори: ом Генкс / Tom Hanks, Фелісіті Джонс / Felicity Jones, Бен Фостер / Ben Foster, Іррфан Кхан / Irrfan Khan, Омар Сі / Omar Sy, Сідсе Бабетт Кнудсен / Sidse Babett Knudsen, Ана Улару / Ana Ularu, Іда Дарвіш / Ida Darvish, Ката Сарбо / Kata Sarbo, Аттіла Арпа / Attila Arpa та інші

Сюжет:
Професор релігійної симвології Роберт Ленґдон прибуває до Флоренції, і одразу опиняється в круговерті загадкових подій, котрі можуть привести людство до загибелі. І лише розгадка таємниці, зашифрованої в безсмертній поемі Данте здатна відвернути невідворотнє...


Тривалість: 02:01:49
Якість: 4K UltraHD Remux 2160p
Відео:
кодек: H.265 (HEVC)
розмір кадру: 3840x2160
бітрейт: 43,7 Мб/с
бітова глибина: 10 біт
кольоровий простір: BT.2020 (HDR)

Аудіо # 1:
мова: українська
переклад: професійний дубльований -iTunes-
кодек: АС3 2.1
бітрейт: 192 кб/с

Аудіо # 2:
мова: англійська
переклад: оригінал
кодек: TrueHD+Atmos 7.1
бітрейт: 4902 кб/с

Субтитри:# 1-2:
мова: українська (форсовані, повні)
тип: програмні (м'які)
формат: UTF-8

Субтитри # 3-4:
мова:англійська (форсовані, повні)
тип: програмні (м'які)
формат: UTF-8
Info
General
Unique ID : 76406792082901309558743440010372433744 (0x397B69B2AE4A216B7D083158AA27C750)
Complete name : Q:\Inferno.2016.2160p.HEVC.UHD.HDR..
Format :
Format version : Version 4 / Version 2
File size : 41.5 GiB
Duration : 2 h 1 min
Overall bit rate mode : Variable
Overall bit rate : 48.8 Mb/s
Encoded date : UTC 2018-02-25 13:35:53
Writing application : v20.0.0 ('I Am The Sun') 64-bit
Writing library : libebml v1.3.5 + v1.4.8
Cover : Yes
Attachments : cover.jpg

Video
ID : 1
Format : HEVC
Format/Info : High Efficiency Video Coding
Format profile : Main [email protected]@High
Codec ID : V_MPEGH/ISO/HEVC
Duration : 2 h 1 min
Bit rate : 43.7 Mb/s
Width : 3 840 pixels
Height : 2 160 pixels
Display aspect ratio : 16:9
Frame rate mode : Constant
Frame rate : 23.976 (24000/1001) FPS
Color space : YUV
Chroma subsampling : 4:2:0 (Type 2)
Bit depth : 10 bits
Bits/(Pixel*Frame) : 0.220
Stream size : 37.1 GiB (89%)
Title : Remux, 20160p, HEVC, UDH, HDR by Silverok
Default : Yes
Forced : No
Color range : Limited
Color primaries : BT.2020
Transfer characteristics : PQ
Matrix coefficients : BT.2020 non-constant
Mastering display color pri : Display P3
Mastering display luminance : min: 0.0050 cd/m2, max: 4000 cd/m2
Maximum Content Light Level : 10000 cd/m2
Maximum Frame-Average Light : 3647 cd/m2

Audio #1
ID : 2
Format : AC-3
Format/Info : Audio Coding 3
Codec ID : A_AC3
Duration : 2 h 1 min
Bit rate mode : Constant
Bit rate : 192 kb/s
Channel(s) : 2 channels
Channel positions : Front: L R
Sampling rate : 48.0 kHz
Frame rate : 31.250 FPS (1536 SPF)
Bit depth : 16 bits
Compression mode : Lossy
Stream size : 167 MiB (0%)
Title : дуб iTunes
Language : Ukrainian
Service kind : Complete Main
Default : Yes
Forced : No

Audio #2
ID : 7
Format : TrueHD
Format profile : TrueHD+Atmos / TrueHD
Codec ID : A_TRUEHD
Duration : 2 h 1 min
Bit rate mode : Variable
Bit rate : 4 902 kb/s
Maximum bit rate : 8 316 kb/s
Channel(s) : Object Based / 8 channels
Channel positions : Object Based / Front: L C R, Side: L R, Back: L R, LFE
Sampling rate : / 48.0 kHz
Frame rate : 1 200.000 FPS (40 SPF)
Compression mode : Lossless
Stream size : 4.15 GiB (10%)
Language : English
Default : No
Forced : No

Text #1
ID : 3
Format : UTF-8
Codec ID : S_TEXT/UTF8
Codec ID/Info : UTF-8 Plain Text
Duration : 1 h 50 min
Bit rate : 3 b/s
Count of elements : 47
Stream size : 2.53 KiB (0%)
Title : Forced
Language : Ukrainian
Default : No
Forced : No

Text #2
ID : 4
Format : UTF-8
Codec ID : S_TEXT/UTF8
Codec ID/Info : UTF-8 Plain Text
Duration : 1 h 55 min
Bit rate : 89 b/s
Count of elements : 1398
Stream size : 75.0 KiB (0%)
Title : Full
Language : Ukrainian
Default : No
Forced : No

Text #3
ID : 5
Format : UTF-8
Codec ID : S_TEXT/UTF8
Codec ID/Info : UTF-8 Plain Text
Duration : 57 min 24 s
Bit rate : 2 b/s
Count of elements : 29
Stream size : 1.01 KiB (0%)
Title : Forced
Language : English
Default : No
Forced : No

Text #4
ID : 6
Format : UTF-8
Codec ID : S_TEXT/UTF8
Codec ID/Info : UTF-8 Plain Text
Duration : 1 h 55 min
Bit rate : 55 b/s
Count of elements : 1360
Stream size : 46.9 KiB (0%)
Title : Full
Language : English
Default : No
Forced : No
Скріншоти








Джерело: &

Особиста оцінка: 10 - без зайвих вагань рекомендую всім!

Як переглядати 4K UHD на телевізорі через комп'ютер DLNA
4K
Для перегляду можна використати ForkPlayer 2.5 http://forkplayer.tv/ або Plex Media Server https://www.plex.tv/ .
Важливо!!!!! Звичайні DLNA-Сервери не відтворюють 4K фільми
За допомогою в налаштуваннях звертайтеся в приват! Якщо хтось знає інші 100%-ві методи відтворення UHD, прошу також писати в приват


Золотий реліз (завантажене не впливає на рейтинг)
 Трекер:    Зареєстрований   

Завантажити / скачати фільм українською



відео для новачків



 Зареєстрований:   2018-02-25 17:24
 Розмір:   41.47 GB 
 Оцінка фільму:   9.2/10 (Голосів: 13)
   
Інші релізи
   Інферно / Inferno (2016) Covenant  21 / 2   1.45 GB   2017-01-10 23:26 
   Інферно / Inferno (2016) 720p Ukr/Eng | Sub Ukr/Eng igor911  9 / 0   9.28 GB   2017-01-10 20:29 
   Інферно / Inferno (2016) 1080p Ukr/Eng | Sub Ukr/Eng Electroz  10 / 0   14.75 GB   2017-01-10 14:06 
   Інферно / Inferno (2016) Remux 1080p Ukr/Eng | Sub Ukr/Eng staf777  1 / 0   23.15 GB   2017-01-09 16:48 
   Інферно / Inferno (2016) AVC Ukr/Eng | Sub Ukr/Eng 11FrYkT  8 / 0   2.6 GB   2017-01-06 20:02 
   Інферно / Inferno (2016) Ukr/Eng | Sub Ukr/Eng Gelios  11 / 0   2.18 GB   2017-01-06 19:41 
sergiosem07 
Новенький


З нами з: 25.12.17
Востаннє: 24.03.19
Повідомлень: 9

2018-03-17 11:18  
роздачу увімкніть!
sergiosem07 
Новенький


З нами з: 25.12.17
Востаннє: 24.03.19
Повідомлень: 9

2018-03-17 17:05  
99,9% - роздачу...

Додано через 4 хвилини 13 секунд:

дякую!

voskresenska1 
Новенький


З нами з: 16.01.13
Востаннє: 15.05.19
Повідомлень: 9

2019-01-09 01:48  
Можна роздачу?) Дякую!
igor911 
Модератор відео


З нами з: 18.01.08
Востаннє: 25.05.19
Повідомлень: 12541

2019-01-09 02:14  
voskresenska1 написано:
Можна роздачу?

voskresenska1 написано:
Рейтинг: 0.09
Torrent-профіль користувача voskresenska1
Активні торренти:
Роздає - немає

те саме питають в релізах, які ви завантажили, але не роздаєте.

Додано через 20 секунд:

файлообмін - двосторонній процес.

Ваш часовий пояс: GMT + 2 Години

Нова тема   Відповісти