Мафія! (Мафія Джейн Остін) / Jane Austen's Mafia! (1998) Remux 1080p Ukr/Eng

Нові коментарі

Нова тема   Відповісти
Автор Повідомлення
boroznaya 
Попереджень: 1
Попереджень: 1 


З нами з: 02.11.12
Востаннє: 20.05.19
Повідомлень: 2965

2018-02-25 12:54  
Мафія! (Мафія Джейн Остін) / Jane Austen's Mafia! (1998) Remux 1080p Ukr/Eng

Мафія! (Мафія Джейн Остін) / Jane Austen's Mafia! (1998) Remux 1080p Ukr/Eng


Жанр: комедія, пародія, кримінал
Країна: США



Кінокомпанія: Touchstone Pictures
Режисер: Джим Абрахамс
Актори: Джей Мор, Біллі Берк, Крістіна Епплгейт, Памела Гідлі, Олімпія Дукакіс, Ллойд Бріджес, Джейсон Фучс, Джо Вітереллі, Тоні Ло Б'янко, Блейк Хеммонд

Сюжет: Головний герой Дон Вінченцо Кортіно - голова дивно неорганізованого злочинного угруповання.
В результаті мафіозних розборок на хрещеного батька здійснюється підступний замах - в нього стріляють 47 разів, і це змушує Дона Кортіно
замислитися над сенсом життя.
Патріарху кримінального світу потрібний гідний наступник, який зможе остаточно дезорганізувати злочинність в країні.
У синьйора Вінченцо два сини: один - відважний герой війни, інший - закінчений психопат і наркоман. Кого ж вибере мудрий Дон? ...

«Мафія!» (Англ. Mafia!; оригінальна назва - Jane Austen's Mafia!, що в перекладі означає Мафія Джейн Остін!) - пародійна комедія на гангстерські фільми, зокрема трилогію «Хрещений батько», «Обличчя зі шрамом», «Казино », а також на фільми інших жанрів, наприклад, «Форрест Гамп».

Тривалість: 01:26:47
Якість: Remux

Відео:
кодек:
розмір кадру: 1920x1080
бітрейт: 18,6 Мб/с

Аудіо # 1:
мова: українська
переклад: багатоголосий закадровий
кодек: 5.1
бітрейт: 384 кб/с

Аудіо # 2:
мова: англійська
переклад: оригінал
кодек: 2.0
бітрейт: 192 кб/с
Info
D:\Завантаження\Jane Austen's Mafia! (1998) [Ukr, Eng] 1080p [Hurtom].
General
Unique ID : 297759287089166800324209044212243076962 (0xE0025A4C0499D19486399768D9A99762)
Complete name : D:\Завантаження\Jane Austen's Mafia! (1998) [Ukr, Eng] 1080p [Hurtom].
Format :
Format version : Version 4 / Version 2
File size : 11.9 GiB
Duration : 1h 26mn
Overall bit rate mode : Variable
Overall bit rate : 19.6 Mbps
Encoded date : UTC 2018-02-25 08:34:07
Writing application : v20.0.0 ('I Am The Sun') 64-bit
Writing library : libebml v1.3.5 + v1.4.8
DURATION : 01:26:47.872000000
NUMBER_OF_FRAMES : 162746
NUMBER_OF_BYTES : 249977856
_STATISTICS_WRITING_APP : v20.0.0 ('I Am The Sun') 64-bit
_STATISTICS_WRITING_DATE_UTC : 2018-02-25 08:34:07
_STATISTICS_TAGS : BPS DURATION NUMBER_OF_FRAMES NUMBER_OF_BYTES

Video #1
ID : 1
Format : AVC
Format/Info : Advanced Video Codec
Format profile : [email protected]
Format settings, CABAC : Yes
Format settings, ReFrames : 4 frames
Format settings, GOP : M=3, N=24
Codec ID : V_MPEG4/ISO/AVC
Duration : 1h 26mn
Bit rate mode : Variable
Bit rate : 18.6 Mbps
Maximum bit rate : 25.0 Mbps
Width : 1 920 pixels
Height : 1 080 pixels
Display aspect ratio : 16:9
Frame rate : 23.976 fps
Standard : NTSC
Color space : YUV
Chroma subsampling : 4:2:0
Bit depth : 8 bits
Scan type : Progressive
Bits/(Pixel*Frame) : 0.374
Stream size : 11.3 GiB (95%)
Default : Yes
Forced : No
Color primaries : BT.709-5, BT.1361, IEC 61966-2-4, SMPTE RP177
Transfer characteristics : BT.709-5, BT.1361
Matrix coefficients : BT.709-5, BT.1361, IEC 61966-2-4 709, SMPTE RP177

Audio #2
ID : 2
Format : AC-3
Format/Info : Audio Coding 3
Mode extension : CM (complete main)
Codec ID : A_AC3
Duration : 1h 26mn
Bit rate mode : Constant
Bit rate : 384 Kbps
Channel(s) : 6 channels
Channel positions : Front: L C R, Side: L R, LFE
Sampling rate : 48.0 KHz
Bit depth : 16 bits
Compression mode : Lossy
Stream size : 238 MiB (2%)
Title : ictv
Language : Ukrainian
Default : Yes
Forced : No

Audio #3
ID : 3
Format : AC-3
Format/Info : Audio Coding 3
Mode extension : CM (complete main)
Codec ID : A_AC3
Duration : 1h 26mn
Bit rate mode : Constant
Bit rate : 192 Kbps
Channel(s) : 2 channels
Channel positions : Front: L R
Sampling rate : 48.0 KHz
Bit depth : 16 bits
Compression mode : Lossy
Stream size : 119 MiB (1%)
Language : English
Default : No
Forced : No
Скріншоти



Подяка пану Merdiff за звукову доріжку.

Джерело:
Особиста оцінка: 8 - мені сподобалося


Золотий реліз (завантажене не впливає на рейтинг)
 Трекер:    Зареєстрований   

Завантажити / скачати фільм українською



відео для новачків



 Зареєстрований:   2018-02-27 12:38
 Розмір:   11.87 GB 
 Оцінка фільму:   7.4/10 (Голосів: 7)
   
Інші релізи
   Мафія / Jane Austen's Mafia! (1998) NemoInFire  6 / 0   1.37 GB   2010-10-29 20:15 
bot 
робот


З нами з: 30.09.07
Востаннє: 26.05.05
Повідомлень: 21356

2018-02-27 12:27  
Тему перенесено з Анонси релізів до форуму Фільми в HD


boroznaya

igor911 
Модератор відео


З нами з: 18.01.08
Востаннє: 21.05.19
Повідомлень: 12513

2018-02-27 13:33  
Виправив назву - це не ріп, а ремукс. Також порада на майбутнє - в ремуксі залишати оригінальний звук в оригінальній якості (тут мав бути -HD MA 2.0 1804 кб/с)

Додано через 5 хвилин 27 секунд:

а також додавати оригінальні субтитри (можна знайти на opensubtitles.org, subscene.com)

boroznaya 
Попереджень: 1
Попереджень: 1 


З нами з: 02.11.12
Востаннє: 20.05.19
Повідомлень: 2965

2018-02-27 14:32  
igor911
Спасибі, зрозуміло!

Ваш часовий пояс: GMT + 2 Години

Нова тема   Відповісти