Кеслвенія (Сезон 1) / Castlevania (Season 1) (2017) 1080p

Нові коментарі

Нова тема   Відповісти
Автор Повідомлення
FanVoxUA 
VIP


З нами з: 05.02.12
Востаннє: 14.04.21
Повідомлень: 3719

2018-02-25 12:20  
Кеслвенія (Сезон 1) / Castlevania (Season 1) (2017) 1080p

Кеслвенія (Сезон 1) / Castlevania (Season 1) (2017) 1080p


Жанр: анімація, бойовик, фентезі, жахи
Країна: США, Канада



Кіностудія / кінокомпанія: Netflix, Frederator Studios, Powerhouse Animation Studios
Режисер: Сем Детс
Ролі озвучують: Річард Армітедж, Джеймс Келліс, Грем Мактавіш, Метт Фрюер та ін.

Сюжет:
Після того, як його дружину спалюють на вогнищі через помилкове звинувачення у чаклунстві, граф Влад Цепеш Дракула обіцяє, що весь народ Волощини розплатиться за це своїми життями. Його армія чудовиськ і демонів наповнює країну, змушуючи людей жити страхом і недовірою. Щоб покласти цьому край, знеславлений мисливець на вампірів Тревор Бельмонт, син Дракули Алукард та чаклунка Сіфа Бельнадес підіймають зброю проти сил Дракули...


Тривалість: 1 серія: 23:45 (цілком серій: 1-4 із 4)
Перелік серій
1. Відьма
2. Некрополіс
3. Лабіринт
4. Монумент
Якість:
Відео:
кодек:
розмір кадру: 1920 х 1080
бітрейт: ~6000 кб/с

Аудіо # 1:
мова: українська
переклад: багатоголосий закадровий
кодек: 5.1
бітрейт: 448 кб/с

Скріншоти
[img]



[/img]
Звіт Info

Format :
Format version : Version 4 / Version 2
File size : 1.29 GiB
Duration : 25 min 3 s
Overall bit rate : 7 377 kb/s
Encoded date : UTC 2018-02-25 00:28:18
Writing application : v9.4.0 ('Knurl') 64bit
Writing library : libebml v1.3.4 + v1.4.5
Cover : Yes
Attachments : cover.jpg

Video
ID : 1
Format : AVC
Format/Info : Advanced Video Codec
Format profile : [email protected]
Format settings, CABAC : Yes
Format settings, ReFrames : 4 frames
Codec ID : V_MPEG4/ISO/AVC
Duration : 25 min 3 s
Bit rate : 6 923 kb/s
Width : 1 920 pixels
Height : 1 080 pixels
Display aspect ratio : 16:9
Frame rate mode : Constant
Frame rate : 23.976 (24000/1001) FPS
Color space : YUV
Chroma subsampling : 4:2:0
Bit depth : 8 bits
Scan type : Progressive
Bits/(Pixel*Frame) : 0.139
Stream size : 1.21 GiB (94%)
Writing library : core 152 r2851 ba24899
Encoding settings : cabac=1 / ref=4 / deblock=1:1:1 / analyse=0x3:0x113 / me=umh / subme=8 / psy=1 / psy_rd=1.00:0.15 / mixed_ref=1 / me_range=16 / chroma_me=1 / trellis=2 / 8x8dct=1 / cqm=0 / deadzone=21,11 / fast_pskip=0 / chroma_qp_offset=-2 / threads=12 / lookahead_threads=2 / sliced_threads=0 / nr=0 / decimate=1 / interlaced=0 / bluray_compat=0 / constrained_intra=0 / bframes=3 / b_pyramid=2 / b_adapt=1 / b_bias=0 / direct=3 / weightb=1 / open_gop=0 / weightp=2 / keyint=240 / keyint_min=23 / scenecut=40 / intra_refresh=0 / rc_lookahead=50 / rc=crf / mbtree=1 / crf=17.0 / qcomp=0.60 / qpmin=0 / qpmax=69 / qpstep=4 / ip_ratio=1.40 / aq=3:0.80
Language : English
Default : Yes
Forced : No

Audio
ID : 2
Format : AC-3
Format/Info : Audio Coding 3
Mode extension : CM (complete main)
Format settings, Endianness : Big
Codec ID : A_AC3
Duration : 25 min 3 s
Bit rate mode : Constant
Bit rate : 448 kb/s
Channel(s) : 6 channels
Channel positions : Front: L C R, Side: L R, LFE
Sampling rate : 48.0 kHz
Frame rate : 31.250 FPS (1536 spf)
Compression mode : Lossy
Stream size : 80.3 MiB (6%)
Title : FanVoxUA
Language : Ukrainian
Default : Yes
Forced : No
Озвучення виконано:
Переклад: Повітряний Змій
Ролі озвучили: AdrianZP, Snovyda, Rendaros, Crupt, Surgeon, LunMai, MariAm, Alfa-Bell, Esme
Робота зі звуком: AdrianZP

Особиста оцінка: 9 - Гарно =)


Авторський реліз (завантажувати можна без реєстрації)
 Трекер:    Зареєстрований   

Завантажити / скачати мультфільм українською



відео для новачків



 Зареєстрований:   2018-02-25 12:20
 Розмір:   3.34 GB 
 Оцінка мультсеріалу:   8.6/10 (Голосів: 17)
   
bot 
робот


З нами з: 30.09.07
Востаннє: 26.05.05
Повідомлень: 27885

2018-02-25 12:24  
Тему перенесено з Аніме до форуму Мультсеріали в HD


FanVoxUA

Jani307 
Свій


З нами з: 09.06.14
Востаннє: 11.04.21
Повідомлень: 136

2018-03-05 15:10  
Дякую, сподобалося.
Але сезон дуже куций Sad (1)

Shukachvitru 
Свій


З нами з: 06.04.17
Востаннє: 10.04.21
Повідомлень: 62

2018-03-07 10:25  
Фанфоксери!

( https://www.facebook.com/fanvox.ua/) вам для озвучення потрібні люди ?

Поет + філософ ))))

Відьмачечок 
Свій


З нами з: 17.05.11
Востаннє: 10.04.21
Повідомлень: 136

2018-03-08 13:19  
Дякую, мені серіал зайшов, погоджуся що 4 епізоди то замало як для такого хронометражу серій. Озвучка також сподобалася.
andros507 
VIP


З нами з: 15.09.10
Востаннє: 10.04.21
Повідомлень: 326

2018-10-27 09:30  
Планується продовження?
FanVoxUA 
VIP


З нами з: 05.02.12
Востаннє: 14.04.21
Повідомлень: 3719

2018-10-28 21:54  
Цитата:
Планується продовження?

Наразі в планах немає.

eXteSy- 
VIP


З нами з: 06.04.09
Востаннє: 14.04.21
Повідомлень: 2312

2019-01-17 00:51  
Дуже класно зроблені моделі та навколишній антураж. Загалом, мальовка-графіка мені дуже імпонує. Однак сам сюжет банальний до неможливості і за його розвитком спостерігати просто нецікаво. Для мене цей серіал не виправдав сподівань.
6,5/10 (в основному, за саму картинку)

Siegfried 
VIP


З нами з: 01.11.11
Востаннє: 09.04.21
Повідомлень: 347

2019-05-20 22:41  
Обнадійлива і досить бадьора вступна серія вселяла надію, що далі все буде, як мінімум, не гірше.
Але потім наповнення кардинально змінилося в протилежну сторону: нудна балаканина супермегапафосного "хероя" і майже жодної динаміки і розвитку подій.

Як так їм (Netflix) це вдається, зливати вдалий стартовий потенціал в помийник ?

Перша серія 6/10.
Все подальше: 2/10.

Розчарування.

Ваш часовий пояс: GMT + 2 Години

Нова тема   Відповісти