Смертельний потяг / Heathers (1988) 1080p Ukr/Eng | Sub Eng

Нові коментарі

Нова тема   Відповісти
Автор Повідомлення
staf777 
Попереджень: 1
Попереджень: 1 


З нами з: 16.11.16
Востаннє: 13.12.18
Повідомлень: 1909

2018-02-25 10:26  
Смертельний потяг / Heathers (1988) 1080p Ukr/Eng | Sub Eng

Смертельний потяг / Heathers (1988) 1080p Ukr/Eng | Sub Eng


Жанр: трилер, комедія, кримінальний
Країна: США



Кінокомпанія: New World Pictures, Cinemarque Entertainment
Режисер: Майкл Леманн
Актори: Вайнона Райдер, Крістіан Слейтер, Шеннон Догерті, Лізанн Фолк, Кім Вокер, Пенелопа Мілфорд

Сюжет:
Вероніка - учениця елітної школи і почесний член клубу "Верес", до якого входять ще три дівчини. Біда в тому, що хоча Вероніці і подобається бути присутньою в закритих тусах, її так жахають расистські погляди і продумана жорстокість вересових дівчат, що вона починає бажати їм смерті. Вона закохується в новенького - шкільного бунтаря на прізвисько Джей Ді, і її таємне бажання несподівано зустрічає відгук. Смертельний потяг безжально розкриває сексуальні і соціальні ритуали школи Вестербург-Хай, де головне - перемога, і чим брудніші методи, тим краще ...


Тривалість: 01:43:00
Якість: 1080p
Відео:
кодек:
розмір кадру: 1920x1040
бітрейт: 8379 кб/с

Аудіо # 1:
мова: українська
переклад: багатоголосий закадровий
кодек: 5.1
бітрейт: 448 кб/с

Аудіо # 2:
мова: англійська
переклад: оригінал
кодек: 5.1
бітрейт: 448 кб/с

Джерело озвучення:


Субтитри:
мова: англійська
тип: програмні (м'які)
формат: *.srt
Info
General
Unique ID : 234931344015113121141101975629713178674 (0xB0BE218B45D757FEAD6F32FE95810032)
Complete name : P:\HD українською » Фільми в HD\Комедія\Heathers (1988) 1080p [Ukr Eng][Sub Eng] [Hurtom].
Format :
Format version : Version 4 / Version 2
File size : 6.67 GiB
Duration : 1 h 43 min
Overall bit rate : 9 274 kb/s
Movie name : Heathers (1988) 1080p [Ukr Eng][Sub Eng] [Hurtom]
Encoded date : UTC 2018-02-25 10:09:32
Writing application : v9.8.0 ('Kuglblids') 64bit
Writing library : libebml v1.3.4 + v1.4.5

Video
ID : 1
Format : AVC
Format/Info : Advanced Video Codec
Format profile : [email protected]
Format settings, CABAC : Yes
Format settings, ReFrames : 5 frames
Codec ID : V_MPEG4/ISO/AVC
Duration : 1 h 43 min
Bit rate : 8 379 kb/s
Width : 1 920 pixels
Height : 1 040 pixels
Display aspect ratio : 1.85:1
Frame rate mode : Constant
Frame rate : 23.976 FPS
Color space : YUV
Chroma subsampling : 4:2:0
Bit depth : 8 bits
Scan type : Progressive
Bits/(Pixel*Frame) : 0.175
Stream size : 6.03 GiB (90%)
Title : Heathers (1988)
Writing library : core 130 r2273 b3065e6
Encoding settings : cabac=1 / ref=5 / deblock=1:-3:-3 / analyse=0x3:0x133 / me=umh / subme=11 / psy=1 / psy_rd=1.00:0.10 / mixed_ref=1 / me_range=32 / chroma_me=1 / trellis=2 / 8x8dct=1 / cqm=0 / deadzone=21,11 / fast_pskip=1 / chroma_qp_offset=-3 / threads=6 / lookahead_threads=1 / sliced_threads=0 / nr=0 / decimate=1 / interlaced=0 / bluray_compat=0 / constrained_intra=0 / bframes=8 / b_pyramid=2 / b_adapt=2 / b_bias=0 / direct=3 / weightb=1 / open_gop=0 / weightp=2 / keyint=250 / keyint_min=23 / scenecut=40 / intra_refresh=0 / rc_lookahead=60 / rc=2pass / mbtree=1 / bitrate=8379 / ratetol=1.0 / qcomp=0.60 / qpmin=0 / qpmax=69 / qpstep=4 / cplxblur=20.0 / qblur=0.5 / ip_ratio=1.40 / aq=1:1.00
Language : English
Default : Yes
Forced : No

Audio #1
ID : 2
Format : AC-3
Format/Info : Audio Coding 3
Mode extension : CM (complete main)
Format settings, Endianness : Big
Codec ID : A_AC3
Duration : 1 h 43 min
Bit rate mode : Constant
Bit rate : 448 kb/s
Channel(s) : 6 channels
Channel positions : Front: L C R, Side: L R, LFE
Sampling rate : 48.0 kHz
Frame rate : 31.250 FPS (1536 spf)
Bit depth : 16 bits
Compression mode : Lossy
Stream size : 330 MiB (5%)
Title : , 6 ch, 448 Kbps, Українська
Language : Ukrainian
Default : Yes
Forced : Yes

Audio #2
ID : 3
Format : AC-3
Format/Info : Audio Coding 3
Mode extension : CM (complete main)
Format settings, Endianness : Big
Codec ID : A_AC3
Duration : 1 h 43 min
Bit rate mode : Constant
Bit rate : 448 kb/s
Channel(s) : 6 channels
Channel positions : Front: L C R, Side: L R, LFE
Sampling rate : 48.0 kHz
Frame rate : 31.250 FPS (1536 spf)
Bit depth : 16 bits
Compression mode : Lossy
Stream size : 330 MiB (5%)
Title : , 6 ch, 448 Kbps, Original
Language : English
Default : No
Forced : No

Text
ID : 4
Format : UTF-8
Codec ID : S_TEXT/UTF8
Codec ID/Info : UTF-8 Plain Text
Duration : 1 h 42 min
Bit rate : 64 b/s
Count of elements : 1542
Stream size : 48.4 KiB (0%)
Language : English
Default : No
Forced : No

Menu
00:00:00.000 : en:00:00:00.000
00:06:51.453 : en:00:06:51.453
00:11:02.495 : en:00:11:02.495
00:16:04.755 : en:00:16:04.755
00:20:52.084 : en:00:20:52.084
00:24:20.250 : en:00:24:20.250
00:31:19.961 : en:00:31:19.961
00:37:36.796 : en:00:37:36.796
00:43:03.539 : en:00:43:03.539
00:47:44.361 : en:00:47:44.361
00:53:00.219 : en:00:53:00.219
00:56:36.977 : en:00:56:36.977
01:01:48.413 : en:01:01:48.413
01:06:07.463 : en:01:06:07.463
01:10:45.199 : en:01:10:45.199
01:16:02.308 : en:01:16:02.308
01:20:21.275 : en:01:20:21.275
01:25:41.053 : en:01:25:41.053
01:29:33.451 : en:01:29:33.451
01:35:39.275 : en:01:35:39.275
Скріншоти



Сирий звук - SweetN, синхронізація - JACKUS
Джерело: &
Особиста оцінка: 0 - не дивився


Срібний реліз (на рейтинг впливає 50% завантаженого)
 Трекер:    Зареєстрований   

Завантажити / скачати фільм українською



відео для новачків



 Зареєстрований:   2018-02-25 12:31
 Розмір:   6.67 GB 
 Оцінка фільму:   8.3/10 (Голосів: 4)
   
Інші релізи
fozzy412 
Свій


З нами з: 15.03.14
Востаннє: 17.10.18
Повідомлень: 71

2018-02-25 11:30  
staf777 
Попереджень: 1
Попереджень: 1 


З нами з: 16.11.16
Востаннє: 13.12.18
Повідомлень: 1909

2018-02-25 12:04  
fozzy412
Я теж так вважаю - оформлення брав тут https://toloka.to/t17203

hetzendorf 
Попереджень: 1
Попереджень: 1 


З нами з: 23.07.15
Востаннє: 13.12.18
Повідомлень: 1550

2018-02-26 01:38  
Не користуйтеся ґуґлоперекладачем ©
http://hrinchenko.com/slovar/znachenie-slova/46464-potjagh.html

Lytuj Bandera 
Новенький


З нами з: 11.02.18
Востаннє: 03.12.18
Повідомлень: 2

2018-04-27 22:14  
Дуже дякую, що маєте цю класику. напевно, це єдиний ресурс де можна знайти старі фільмі з українською озвучкою!
0mage0 
VIP


З нами з: 06.10.15
Востаннє: 10.12.18
Повідомлень: 406

2018-05-20 08:28  
Початок настільки нудний та хаотичний, що спочатку вимкнув це кіно. Потім таки вирішив подивитися. Продовження хоч і маячня, але хоч якийсь сюжет. Кінець - знову шлак Sad (1)

Він підклав бомби під глядацькими сидіннями спортзалу, чому вони не вибухнули, вони що, були синхронізовані з "головною бімбою" в бойлерній? Якщо він після стількох пострілів зміг вийти і підірвати себе (окремою бімбою? бо ж бомби в спортзалі не вибухнули), то чому він не підірвав натомість всю школу, як і планував?

Ваш часовий пояс: GMT + 2 Години

Нова тема   Відповісти