Смерть Сталіна / The Death of Stalin (2017) Remux 1080p Ukr/Eng | Sub Eng

Нові коментарі

Нова тема   Відповісти
Останній раз роздавалося n.vysokinskyi (2018-10-22)
Автор Повідомлення
staf777 
Попереджень: 1
Попереджень: 1 


З нами з: 16.11.16
Востаннє: 21.10.18
Повідомлень: 1648

2018-02-24 00:27  
Смерть Сталіна / The Death of Stalin (2017) Remux 1080p Ukr/Eng | Sub Eng

Смерть Сталіна / The Death of Stalin (2017) Remux 1080p Ukr/Eng | Sub Eng
Альтернативний постер:


«Тоталітарна комедія»

Жанр: біографічний, драма, сатирична комедія
Країна: Велика Британія, Франція, Бельгія



Кінокомпанія: Quad Productions, Main Journey, Gaumont
Режисер: Армандо Яннуччі
Актори: Стів Бушемі, Ольга Куриленко, Джейсон Айзекс, Руперт Френд, Андреа Райзборо, Джеффрі Тембор, Річард Брейк, Педді Консідайн, Майкл Пейлін, Саймон Расселл Біл та інші

Сюжет:
Події розгортаються у Москві у 1953 році. За зачиненими дверима помирає Йосиф Сталін. У його руках була зосереджена безмежна влада над усією країною. Замість глибокої скорботи, яка охопила усіх радянських громадян, наближені до Сталіна особи мають зовсім інші почуття. Кожен приміряє на себе роль наступного лідера величезної держави. Кожен розуміє скільки має конкурентів та недоброзичливців. А для деяких мова навіть не про потенційно владу, а про можливість вийти з цієї круговерті інтриг живим.


Тривалість: 01:46:34
Якість: Remux 1080p
Відео:
кодек:
розмір кадру: 1920 х 1080
бітрейт: 30 Mб/с

Аудіо # 1:
мова: українська
переклад: багатоголосий закадровий | студія AAA-Sound
кодек: -HD MA 5.1
бітрейт: 3223 кб/с

Аудіо # 2:
мова: українська
переклад: багатоголосий закадровий | студія AAA-Sound
кодек: 5.1
бітрейт: 640 кб/с
Інформація про озвучення
Переклад: Юлії Когут
Режисер та звукорежисер перезапису: Олександр Єфімов
Ролі озвучували: Ярослав Чорненький, Юрій Ребрик, Катерина Буцька, Андрій Альохін, Юлія Перенчук, Дмитро Завадський, Михайло Кришталь та інші.
Фільм озвучено студією AAA-Sound у 2018 році на замовлення компанії Вольґа Україна.

Аудіо # 2:
мова: англійська
переклад: оригінал
кодек: -HD MA 5.1
бітрейт: 1769 кб/с

Аудіо # 3:
мова: англійська
переклад:(Commentary)
кодек: 2.0
бітрейт: 192 кб/с

Субтитри :
мова: англійська
тип: пререндерні
формат: *.pgs
Info
Код:
General
Unique ID                   : 234019863768308652004923732223489337021 (0xB00E961926C5A35AC5F1A3FB39B9E6BD)
Complete name               : P:\HD українською » Фільми в HD\The Death of Stalin (2017) Remux 1080p [Ukr][Eng][Sub Eng][Hurtom] (1).
Format                      :
Format version              : Version 4 / Version 2
File size                   : 26.7 GiB
Duration                    : 1 h 46 min
Overall bit rate mode       : Variable
Overall bit rate            : 35.8 Mb/s
Movie name                  : The Death of Stalin (2017) Remux 1080p [Ukr][Eng][Sub Eng][Hurtom]
Encoded date                : UTC 2018-10-10 12:24:06
Writing application         : v24.0.0 ('Beyond The Pale') 64-bit
Writing library             : libebml v1.3.6 + v1.4.9
Cover                       : Yes
Attachments                 : cover.jpg

Video
ID                          : 1
Format                      : AVC
Format/Info                 : Advanced Video Codec
Format profile              : [email protected]
Format settings             : CABAC / 4 Ref Frames
Format settings, CABAC      : Yes
Format settings, ReFrames   : 4 frames
Format settings, GOP        : M=3, N=24
Codec ID                    : V_MPEG4/ISO/AVC
Duration                    : 1 h 46 min
Bit rate mode               : Variable
Bit rate                    : 30.0 Mb/s
Maximum bit rate            : 35.0 Mb/s
Width                       : 1 920 pixels
Height                      : 1 080 pixels
Display aspect ratio        : 16:9
Frame rate mode             : Constant
Frame rate                  : 24.000 FPS
Standard                    : NTSC
Color space                 : YUV
Chroma subsampling          : 4:2:0
Bit depth                   : 8 bits
Scan type                   : Progressive
Bits/(Pixel*Frame)          : 0.603
Stream size                 : 22.3 GiB (84%)
Title                       : MPEG-4 AVC Video / 30000 kbps / 1080p / 24 fps / 16:9 / High Profile 4.1
Language                    : English
Default                     : Yes
Forced                      : No
Color range                 : Limited
Color primaries             : BT.709
Transfer characteristics    : BT.709
Matrix coefficients         : BT.709

Audio #1
ID                          : 2
Format                      :
Format/Info                 : Digital Theater Systems
Format profile              : MA / Core
Codec ID                    : A_DTS
Duration                    : 1 h 46 min
Bit rate mode               : Variable / Constant
Bit rate                    : 3 223 kb/s / 1 509 kb/s
Channel(s)                  : 6 channels
Channel positions           : Front: L C R, Side: L R, LFE
Sampling rate               : 48.0 kHz
Frame rate                  : 93.750 FPS (512 SPF)
Bit depth                   : 24 bits
Compression mode            : Lossless / Lossy
Stream size                 : 2.40 GiB (9%)
Title                       : [ HD MA]
Language                    : Ukrainian
Default                     : Yes
Forced                      : Yes

Audio #2
ID                          : 3
Format                      : AC-3
Format/Info                 : Audio Coding 3
Codec ID                    : A_AC3
Duration                    : 1 h 46 min
Bit rate mode               : Constant
Bit rate                    : 640 kb/s
Channel(s)                  : 6 channels
Channel positions           : Front: L C R, Side: L R, LFE
Sampling rate               : 48.0 kHz
Frame rate                  : 31.250 FPS (1536 SPF)
Bit depth                   : 16 bits
Compression mode            : Lossy
Stream size                 : 488 MiB (2%)
Title                       : []
Language                    : Ukrainian
Service kind                : Complete Main
Default                     : No
Forced                      : No

Audio #3
ID                          : 4
Format                      :
Format/Info                 : Digital Theater Systems
Format profile              : MA / Core
Codec ID                    : A_DTS
Duration                    : 1 h 46 min
Bit rate mode               : Variable / Constant
Bit rate                    : 1 769 kb/s / 1 509 kb/s
Channel(s)                  : 6 channels
Channel positions           : Front: L C R, Side: L R, LFE
Sampling rate               : 48.0 kHz
Frame rate                  : 93.750 FPS (512 SPF)
Bit depth                   : 16 bits
Compression mode            : Lossless / Lossy
Stream size                 : 1.32 GiB (5%)
Title                       : -HD Master Audio / 5.1 / 48 kHz / 1769 kbps / 16-bit
Language                    : English
Default                     : No
Forced                      : No

Audio #4
ID                          : 5
Format                      : AC-3
Format/Info                 : Audio Coding 3
Codec ID                    : A_AC3
Duration                    : 1 h 46 min
Bit rate mode               : Constant
Bit rate                    : 192 kb/s
Channel(s)                  : 2 channels
Channel positions           : Front: L R
Sampling rate               : 48.0 kHz
Frame rate                  : 31.250 FPS (1536 SPF)
Bit depth                   : 16 bits
Compression mode            : Lossy
Stream size                 : 146 MiB (1%)
Title                       : Commentary by director Armando Iannucci and co-writers David Schneider, Ian Martin and Peter Fellows
Language                    : English
Service kind                : Complete Main
Default                     : No
Forced                      : No

Text
ID                          : 6
Format                      : PGS
Muxing mode                 : zlib
Codec ID                    : S_HDMV/PGS
Codec ID/Info               : Picture based subtitle format used on BDs/HD-DVDs
Duration                    : 1 h 39 min
Bit rate                    : 69.0 kb/s
Count of elements           : 3684
Stream size                 : 49.1 MiB (0%)
Title                       : SDH
Language                    : English
Default                     : No
Forced                      : No

Menu
00:00:00.000                : en:Chapter 1
00:06:38.875                : en:Chapter 2
00:13:02.583                : en:Chapter 3
00:19:53.125                : en:Chapter 4
00:29:06.125                : en:Chapter 5
00:33:58.250                : en:Chapter 6
00:40:22.417                : en:Chapter 7
00:45:28.000                : en:Chapter 8
00:50:35.000                : en:Chapter 9
00:58:40.750                : en:Chapter 10
01:03:23.667                : en:Chapter 11
01:12:31.750                : en:Chapter 12
01:17:42.917                : en:Chapter 13
01:24:49.000                : en:Chapter 14
01:33:33.708                : en:Chapter 15
01:39:25.583                : en:Chapter 16
Скріншоти





Подяка пану Hanway за синхронізацію.
Джерело:
Особиста оцінка: 0 - не дивився



Золотий реліз (завантажене не впливає на рейтинг)
 Трекер:    Зареєстрований   

Завантажити / скачати фільм українською



відео для новачків



 Зареєстрований:   2018-10-10 15:53
 Розмір:   26.68 GB 
 Оцінка фільму:   8.9/10 (Голосів: 43)
   
Інші релізи
potroShoc 
Новенький


З нами з: 14.09.12
Востаннє: 08.10.18
Повідомлень: 4

2018-02-24 03:10  
А кінотеатрах теж був закадровий?
Постапокаліптичний Батон 
Частий відвідувач


З нами з: 08.09.11
Востаннє: 22.10.18
Повідомлень: 43

2018-02-24 05:57  
potroShoc
Так.
Режисеру - респект - познущався на славу!
Берія заслуговує усіх можливих оскарів!!!
Було б дуже весело, якби події у стрічці не стосувалося нашої держави.
З. І.: На екрані постійно впізнавалися знайомі місцини. Ґоґоль запевнив після показу, що фільмо(заборонене в ерефії і Казахстані) знімалося в Києві Happy

bot 
робот


З нами з: 30.09.07
Востаннє: 26.05.05
Повідомлень: 19984

2018-02-24 12:54  
Тему перенесено з Анонси релізів до форуму Фільми в HD


staf777

MAKAPOHHIK 
Відео Гуртом - фільмокрай
Відео Гуртом - фільмокрай


З нами з: 04.01.09
Востаннє: 21.10.18
Повідомлень: 926

2018-02-24 13:42  
http://www.imdb.com/title/tt4686844/locations?ref_=tt_dt_dt
Ще Видубицький монастир, наче б :-)

tom_tom 
Новенький


З нами з: 24.11.13
Востаннє: 21.10.18
Повідомлень: 4

2018-02-26 16:02  
Дубляжу не буде? Не знайшов у темі.
igor911 
Відео Гуртом
Відео Гуртом


З нами з: 18.01.08
Востаннє: 22.10.18
Повідомлень: 11263

2018-02-26 16:30  
tom_tom, ні, не буде.
shadera 
Новенький


З нами з: 15.11.16
Востаннє: 18.10.18
Повідомлень: 21

2018-02-27 23:09  
Шикарний фільм. Як правильно зазначив пан Батон, було б все дуже смішно, якби не відчуття, що при всій абсурдності ці події відбувались в реальності. Знімали в Києві, всі місця зі старими будинками і церквами я упізнав. Дуже добре, що нарешті і ці сторінки нашого минулого піднімаються та демонструються.
cyberprostir 
Свій


З нами з: 15.11.09
Востаннє: 20.10.18
Повідомлень: 113

2018-03-08 20:58  
Дивилися 5 березня. Виявилося, що це як раз був день смерті Сталіна. Сцена "проводів" Берії дуже сподобалась. Фільм історично правдивий і без ведмедів на Красной площаді, я б його назвав історичним, як "Темні часи" про Черчилля, хоч там теж є жарти. Фільм вартий перегляду, особливо любителям історичного кіно.
armogun 
Попереджень: 1
Попереджень: 1 


З нами з: 04.05.13
Востаннє: 21.10.18
Повідомлень: 175

2018-03-18 20:51  
cyberprostir
Серйозно? - це моя днюха, може я його реінкарнація? А ні воно подохло в 53-ому

Uberwinder 
VIP


З нами з: 18.11.16
Востаннє: 21.10.18
Повідомлень: 267

2018-03-19 00:08  
Шикарним фільм назвати не берусь, але один раз подивитись можна)))
igor911 
Відео Гуртом
Відео Гуртом


З нами з: 18.01.08
Востаннє: 22.10.18
Повідомлень: 11263

2018-10-13 10:37  
10.10.18 Реліз було оновлено якісним 5.1 звуком
O_omarella! 
Свій


З нами з: 14.06.13
Востаннє: 21.10.18
Повідомлень: 68

2018-10-20 20:48  
поржав, прикольний фільм))
Ваш часовий пояс: GMT + 2 Години

Нова тема   Відповісти