Смерть Сталіна / The Death of Stalin (2017) 720p Ukr/Eng | Sub Eng

Нові коментарі

Нова тема   Відповісти
Автор Повідомлення
Anonymous 







2018-02-23 23:08  
Смерть Сталіна / The Death of Stalin (2017) 720p Ukr/Eng | Sub Eng

Смерть Сталіна / The Death of Stalin (2017) 720p Ukr/Eng | Sub Eng
Альтернативний постер:



Жанр: біографічний, драма, сатирична комедія
Країна: Велика Британія, Франція, Бельгія



Кінокомпанія: Quad Productions, Main Journey, Gaumont
Режисер: Армандо Яннуччі
Актори: Стів Бушемі, Ольга Куриленко, Джейсон Айзекс, Руперт Френд, Андреа Райзборо, Джеффрі Тембор, Річард Брейк, Педді Консідайн, Майкл Пейлін, Саймон Расселл Біл

Сюжет:
Кінокартина «Смерть Сталіна» повідає про останні дні радянського диктатора покаже, як його режим занурюється в пучину хаосу після його смерті.


Тривалість: 01:46:34
Якість:
Відео:
кодек:
розмір кадру: 1280x692
бітрейт: 5815 кб/с

Аудіо # 1:
мова: українська
переклад: багатоголосий закадровий | студія ААА-sound
кодек: 5.1
бітрейт: 384 кб/с
Інформація про озвучення
Переклад: Юлії Когут
Режисер та звукорежисер перезапису: Олександр Єфімов
Ролі озвучували: Ярослав Чорненький, Юрій Ребрик, Катерина Буцька, Андрій Альохін, Юлія Перенчук, Дмитро Завадський, Михайло Кришталь та інші.
Фільм озвучено: студією AAA-Sound у 2018 році на замовлення компанії Вольґа Україна.
Аудіо # 2:
мова: англійська
переклад: оригінал
кодек: 5.1
бітрейт: 640 кб/с

Субтитри:
мова: англійська
тип: програмні (м'які)
формат: *.srt
Info
Complete name : E:\The Death of Stalin (2017) 720p [UKR.ENG].
Format :
Format version : Version 4 / Version 2
File size : 5.09 GiB
Duration : 1 h 46 min
Overall bit rate : 6 839 kb/s
Movie name : The Death of Stalin (2017)
Encoded date : UTC 2018-09-07 09:48:51
Writing application : v24.0.0 ('Beyond The Pale') 64-bit
Writing library : libebml v1.3.6 + v1.4.9

Video
ID : 1
Format : AVC
Format/Info : Advanced Video Codec
Format profile : [email protected]
Format settings : CABAC / 9 Ref Frames
Format settings, CABAC : Yes
Format settings, ReFrames : 9 frames
Codec ID : V_MPEG4/ISO/AVC
Duration : 1 h 46 min
Bit rate : 5 815 kb/s
Width : 1 280 pixels
Height : 692 pixels
Display aspect ratio : 1.85:1
Frame rate mode : Constant
Frame rate : 24.000 FPS
Color space : YUV
Chroma subsampling : 4:2:0
Bit depth : 8 bits
Scan type : Progressive
Bits/(Pixel*Frame) : 0.274
Stream size : 4.33 GiB (85%)
Title : potroks
Writing library : core 155 r2901M 7d0ff22
Encoding settings : cabac=1 / ref=9 / deblock=1:-3:-3 / analyse=0x3:0x133 / me=umh / subme=11 / psy=1 / psy_rd=1.00:0.05 / mixed_ref=1 / me_range=48 / chroma_me=1 / trellis=2 / 8x8dct=1 / cqm=0 / deadzone=21,11 / fast_pskip=0 / chroma_qp_offset=-3 / threads=9 / lookahead_threads=2 / sliced_threads=0 / nr=0 / decimate=0 / interlaced=0 / bluray_compat=0 / constrained_intra=0 / bframes=11 / b_pyramid=2 / b_adapt=2 / b_bias=0 / direct=3 / weightb=1 / open_gop=0 / weightp=2 / keyint=240 / keyint_min=23 / scenecut=40 / intra_refresh=0 / rc_lookahead=135 / rc=2pass / mbtree=0 / bitrate=5815 / ratetol=1.0 / qcomp=0.70 / qpmin=0 / qpmax=69 / qpstep=4 / cplxblur=20.0 / qblur=0.5 / vbv_maxrate=50000 / vbv_bufsize=50000 / nal_hrd=none / filler=0 / ip_ratio=1.40 / pb_ratio=1.30 / aq=1:0.70
Language : English
Default : Yes
Forced : No
Color range : Limited
Color primaries : BT.709
Transfer characteristics : BT.709
Matrix coefficients : BT.709

Audio #1
ID : 2
Format : AC-3
Format/Info : Audio Coding 3
Commercial name : Dolby Digital
Codec ID : A_AC3
Duration : 1 h 46 min
Bit rate mode : Constant
Bit rate : 384 kb/s
Channel(s) : 6 channels
Channel positions : Front: L C R, Side: L R, LFE
Sampling rate : 48.0 kHz
Frame rate : 31.250 FPS (1536 SPF)
Bit depth : 16 bits
Compression mode : Lossy
Stream size : 293 MiB (6%)
Title : MVO
Language : Ukrainian
Service kind : Complete Main
Default : Yes
Forced : Yes

Audio #2
ID : 3
Format : AC-3
Format/Info : Audio Coding 3
Commercial name : Dolby Digital
Codec ID : A_AC3
Duration : 1 h 46 min
Bit rate mode : Constant
Bit rate : 640 kb/s
Channel(s) : 6 channels
Channel positions : Front: L C R, Side: L R, LFE
Sampling rate : 48.0 kHz
Frame rate : 31.250 FPS (1536 SPF)
Bit depth : 16 bits
Compression mode : Lossy
Stream size : 488 MiB (9%)
Title : Original | DD 5.1 @ 640 kbps
Language : English
Service kind : Complete Main
Default : No
Forced : No

Text
ID : 4
Format : UTF-8
Codec ID : S_TEXT/UTF8
Codec ID/Info : UTF-8 Plain Text
Duration : 1 h 36 min
Bit rate : 85 b/s
Count of elements : 1707
Stream size : 60.6 KiB (0%)
Title : Full
Language : English
Default : No
Forced : No

Menu
00:00:00.000 : :Chapter 1
00:06:38.875 : :Chapter 2
00:13:02.583 : :Chapter 3
00:19:53.125 : :Chapter 4
00:29:06.125 : :Chapter 5
00:33:58.250 : :Chapter 6
00:40:22.417 : :Chapter 7
00:45:28.000 : :Chapter 8
00:50:35.000 : :Chapter 9
00:58:40.750 : :Chapter 10
01:03:23.667 : :Chapter 11
01:12:31.750 : :Chapter 12
01:17:42.917 : :Chapter 13
01:24:49.000 : :Chapter 14
01:33:33.708 : :Chapter 15
01:39:25.583 : :Chapter 16
Скріншоти







Підтримати купівлю інших фільмів можна тут.


Джерело:
Особиста оцінка: Не дивився
Подяки: за доріжку AngryBirdsUA, за постер - Lazarus'у.


 Трекер:    Зареєстрований   

Завантажити / скачати фільм українською



відео для новачків



 Зареєстрований:   2018-09-07 19:27
 Розмір:   5.09 GB 
 Оцінка фільму:   9.2/10 (Голосів: 75)
   
Інші релізи
korsar1488 
Новенький


З нами з: 28.07.12
Востаннє: 21.10.18
Повідомлень: 20

2018-02-23 23:11  
Дякую! Приємний сюрприз.
jaral 
Відео Гуртом - підтримка та поширення
Відео Гуртом - підтримка та поширення


З нами з: 18.10.07
Востаннє: 21.10.18
Повідомлень: 655

2018-02-24 01:50  
Трейлери та все таке інше, були дублюванні Sad (1)
Anonymous 







2018-02-24 02:12  
jaral написано:
Трейлери та все таке інше, були дублюванні

тут приглушили англійську і іноді її майже буде не чутно, що можна сплутати з дубляжем.

-ПАН КОЦЬКИЙ- 
Свій


З нами з: 27.11.17
Востаннє: 22.09.18
Повідомлень: 50

2018-02-26 23:46  
Швидше б дочекатися продовження - "Смерть Путіна / The Death of Putin" Happy
casper101 
VIP


З нами з: 03.12.09
Востаннє: 21.10.18
Повідомлень: 321

2018-03-02 15:43  
Ольга Куриленко вбила сталіна.
yanus68 
Новенький


З нами з: 05.03.18
Востаннє: 11.09.18
Повідомлень: 1

2018-03-05 20:48  
Вельми подякував
neokleo 
Новенький


З нами з: 05.12.17
Востаннє: 16.10.18
Повідомлень: 3

2018-03-05 21:53  
Гарний фільм. Така ... сатира про страшне...
І озвучка непогана.

Alex_Shumway 
Частий відвідувач


З нами з: 10.07.16
Востаннє: 27.09.18
Повідомлень: 30

2018-03-10 15:34  
сумний фільм про прекрасну подію...
приєднуюсь до очікування продовження)

Anonymous 







2018-09-07 13:03  
Оновленно доріжку з 2.0 лайн на 5.1 з айтюнсу.

bob_fucker 
Частий відвідувач


З нами з: 22.12.11
Востаннє: 20.10.18
Повідомлень: 43

2018-09-07 17:39  
Озвучення розсинхронізоване з відео
gordonf 
Новенький


З нами з: 20.09.12
Востаннє: 20.10.18
Повідомлень: 13

2018-09-07 18:31  
bob_fucker
Плюсую! Сильний розсинхрон!

Anonymous 







2018-09-07 19:28  
Розсинхрон виправлено.

MAGnitos 
Новенький


З нами з: 30.10.16
Востаннє: 21.10.18
Повідомлень: 22

2018-09-07 21:19  
-ПАН КОЦЬКИЙ- написано:
Швидше б дочекатися продовження - "Смерть Путіна / The Death of Putin"

+1

darth_rus 
Новенький


З нами з: 09.09.17
Востаннє: 20.10.18
Повідомлень: 8

2018-09-09 18:17  
Фільм дуже сподобався, хоча місцями нудьгуватий)
waldi-hurtom 
VIP


З нами з: 07.10.12
Востаннє: 21.10.18
Повідомлень: 815

2018-09-09 21:57  
Вбогість. 2 з 10. Важко було запросити консультанта, що пам'ятає совдепівську атмосферу? Жахливий підбір акторів. Жахливі костюми. Жахливе знання історії. Примітивна бодяга з англо-французьких кліше про совдеп та людські характери. І хто пожартував про жанр "біографічний"? Так посміятися можна і з дулі. Черговий Распутін а-ля-голівуд, цур їм пек!
0mage0 
VIP


З нами з: 06.10.15
Востаннє: 21.10.18
Повідомлень: 368

2018-10-15 12:27  
Чудовий фільм, засобами чорного гумору дуже влучно передана атмосфера, рівень цинізму і абсурду тодішніх часів. Кінець трошки кульгає, але загалом вийшло дуже гарно. До речі, багато моментів фільму засновано на історичних подіях. Мінус перекладу - берія співає пісеньку московською, що за срань Sad (1) І ще цей "виконуючий обов'язки" Sad (1)
Ваш часовий пояс: GMT + 2 Години

Нова тема   Відповісти