VA - Tomb Of Druids (2017) [FLAC] | Dark Ambient

Нові коментарі

Нова тема   Відповісти
Автор Повідомлення
kolpavel 
VIP


З нами з: 04.05.14
Востаннє: 20.04.18
Повідомлень: 1216

2018-02-23 18:18  
VA - Tomb Of Druids (2017) [FLAC] | Dark Ambient

VA - Tomb Of Druids (2017) [FLAC] | Dark Ambient


Стиль: Dark Ambient
Країна, місто: Україна, Київ
Видавець: Cryo Chamber
Виконавці:
Sasha Cats
Пісні:
    01. ProtoU – Eyes Of The Shaman - 12:00
    02. Aegri Somnia – Temple Of Druids - 07:52
    03. Dead Melodies – Bryn Celli Ddu - 08:04
    04. Ager Sonus – Well Of Knowledge - 08:17
    05. Creation VI – Birds Turning Stones - 15:37

Тривалість: 00:51:50
Мова: iнструментальнi композицiї
Аудіо-кодек: FLAC
Бітрейт: 1228 - 1509 кб/с
Джерело: трекер
Додаткова інформація: Додаткова інформація:
динамічний діапазон
foobar2000 1.3.10 / Замер динамического диапазона (DR) 1.1.1
Дата отчёта: 2018-02-23 11:02:42

--------------------------------------------------------------------------------
Анализ: Aegri Somnia / Tomb Of Druids (1)
Ager Sonus / Tomb Of Druids (2)
Creation VI / Tomb Of Druids (3)
Dead Melodies / Tomb Of Druids (4)
ProtoU / Tomb Of Druids (5)
--------------------------------------------------------------------------------

DR Пики RMS Продолжительность трека
--------------------------------------------------------------------------------
DR9 -0.25 дБ -11.62 дБ 7:53 02-Temple Of Druids
DR9 -0.25 дБ -12.96 дБ 8:18 04-Well Of Knowledge
DR8 -0.25 дБ -10.51 дБ 15:37 05-Birds Turning Stones
DR8 -0.25 дБ -10.94 дБ 8:04 03-Bryn Celli Ddu
DR8 -0.25 дБ -9.56 дБ 12:00 01-Eyes Of The Shaman
--------------------------------------------------------------------------------

Количество треков: 5
Реальные значения DR: DR8

Частота: 44100 Гц
Каналов: 2
Разрядность: 24
Битрейт: 1509 кбит/с
Кодек: FLAC
================================================================================


Якщо Ви справді бажаєте підтримати українське - після прослуховування, якщо музика вам сподобалась, придбайте ліцензійний диск. Підтримаймо вітчизняних виконавців!


Срібний реліз (на рейтинг впливає 50% завантаженого)
 Трекер:    Зареєстрований   

Завантажити / скачати українську музику



відео для новачків



 Зареєстрований:   2018-02-23 18:28
 Розмір:   499 MB 
 Оцінка музики:   7/10 (Голосів: 3)
   
kolpavel 
VIP


З нами з: 04.05.14
Востаннє: 20.04.18
Повідомлень: 1216

2018-02-23 22:30  
https://toloka.to/t76575?spmode=full&dl=names protoU | Дискографiя (6CD) (2015-2018) [FLAC]
Ваш часовий пояс: GMT + 2 Години

Нова тема   Відповісти